ロ畢ロ畢ロ畢 -Bi Bi Bi-
謝金燕 -Jeannie Hsieh-

BASIC

Level: 3
BPM: 142
Notes: 212

1
口口口口 |----|
口口口口 |----|
口口口口 |----|
口口口口 |----|
2
口口口口 |①---|
口口口口 |②---|
口口口口 |③---|
①②③④ |④---|
3
口口口口 |①---|
③③④④ |②---|
口①②口 |③---|
口口口口 |④---|
4
口口口口 |①---|
口口口口 |②---|
口口口口 |③---|
①②③④ |④---|
5
口口口口 |①---|
③③④④ |②---|
口①②口 |③---|
口口口口 |④---|
6
口口口口 |①---|
口口口口 |②---|
②④口口 |③---|
①③口口 |④---|
7
口口口口 |①---|
口口口口 |②---|
口口②④ |③---|
口口①③ |④---|
8
②④口口 |①---|
①③口口 |②---|
口口口口 |③---|
口口口口 |④---|
9
口口②④ |①---|
口口①③ |②---|
口口口口 |③---|
口口口口 |④---|
10
口口口口 |①---|
口①①口 |----|
口口口口 |----|
口口口口 |----|
11
①口口口 |①---|
口②口口 |②---|
口口③口 |③---|
口口口④ |④---|
12
口口口口 |①---|
口口口口 |----|
口口口口 |----|
口①①口 |----|
13
口口口① |①---|
口口②口 |②---|
口③口口 |③---|
④口口口 |④---|
14
口口口口 |①---|
口口口口 |----|
口口口口 |----|
口①①口 |----|
15
口④③口 |①---|
口口口② |②---|
口口口① |③---|
口口口口 |④---|
16
口口口口 |①---|
①口口口 |②---|
②口口口 |----|
口口口口 |----|
17
口口口口 |①---|
口②①口 |②---|
口④③口 |③---|
口口口口 |④---|
18
口口口口 |①---|
口口口口 |②---|
口口口口 |----|
口②①口 |----|
19
口口口④ |①---|
口口③口 |②---|
口②口口 |③---|
①口口口 |④---|
20
口①①口 |①---|
口口口口 |----|
口口口口 |----|
口口口口 |----|
21
④口口口 |①---|
口③口口 |②---|
口口②口 |③---|
口口口① |④---|
22
口①①口 |①---|
口口口口 |----|
口口口口 |----|
口口口口 |----|
23
口③④口 |①---|
②口口口 |②---|
①口口口 |③---|
口口口口 |④---|
24
口口口口 |①---|
口口口① |②---|
口口口② |----|
口口口口 |----|
25
口口口口 |①---|
口①②口 |②---|
口③④口 |③---|
口口口口 |④---|
26
口口口口 |①---|
口口口口 |②---|
口口口口 |----|
口①②口 |----|
27
①①②② |①---|
③③④④ |②---|
口口口口 |③---|
口口口口 |④---|
28
口口口口 |①---|
口口口口 |②---|
口①①口 |③---|
③②②③ |----|
29
②②①① |①---|
④④③③ |②---|
口口口口 |③---|
口口口口 |④---|
30
口口口口 |①---|
口口口口 |②---|
口①①口 |③---|
③②②③ |----|
31
①口口② |①---|
①③③② |②---|
口④④口 |③---|
口口口口 |④---|
32
口口口口 |----|
口口口口 |①---|
②口口② |②---|
①口口① |----|
33
①口③口 |①---|
口②口④ |②---|
口口口口 |③---|
口口口口 |④---|
34
口口口① |①---|
口口②口 |②---|
口③口口 |③---|
④口口口 |④---|
35
②口口① |①---|
②③③① |②---|
口④④口 |③---|
口口口口 |④---|
36
口口口口 |----|
口口口口 |①---|
②口口② |②---|
①口口① |----|
37
②②①① |①---|
④④③③ |②---|
口口口口 |③---|
口口口口 |④---|
38
口口口口 |----|
口③③口 |①---|
口②②口 |②---|
口①①口 |③---|
39
口①①口 |①---|
口口口口 |----|
口口口口 |----|
口口口口 |----|
40
口口口口 |----|
口口口口 |----|
口口口口 |----|
口口口口 |----|
41
口口口口 |①---|
①口口口 |----|
口②口口 |②---|
口口口口 |----|
42
口口口口 |①---|
口口口③ |----|
口口口② |②---|
口口①口 |③---|
43
口口口① |①---|
口口②口 |----|
口口口口 |②---|
口口口口 |----|
44
口口口口 |①---|
口口口口 |----|
口①口口 |②---|
②口口口 |----|
45
口口口口 |①---|
口口口① |----|
口口②口 |②---|
口口口口 |----|
46
口口口口 |①---|
③口口口 |----|
②口口口 |②---|
口①口口 |③---|
47
①口口② |①---|
口③④口 |②---|
口口口口 |③---|
口口口口 |④---|
48
口口口口 |①---|
口口口口 |②---|
口①②口 |③---|
③口口④ |④---|
49
口口口口 |①---|
①口口② |②---|
口③④口 |③---|
口口口口 |④---|
50
口口口口 |①---|
③口口④ |②---|
口口口口 |③---|
口①②口 |④---|
51
口①②口 |①---|
口③④口 |②---|
口口口口 |③---|
口口口口 |④---|
52
口口口口 |①---|
口口口口 |②---|
口①②口 |③---|
口③④口 |④---|
53
①口口② |①---|
③口口④ |②---|
口口口口 |③---|
口口口口 |④---|
54
口口口口 |①---|
口口口口 |②---|
①口口② |③---|
③口口④ |④---|
55
口口口口 |①---|
口①①口 |----|
口①①口 |----|
口口口口 |----|

不確定度: 0

最終更新:2014年12月11日 23:31