ロ畢ロ畢ロ畢 -Bi Bi Bi-
謝金燕 -Jeannie Hsieh-

ADVANCED

Level: 6
BPM: 142
Notes: 381

1
口口口口 |----|
口口口口 |----|
口口口口 |----|
口口口口 |----|
2
⑧口口⑦ |①-②-|
⑥口口⑤ |③-④-|
④口口③ |⑤-⑥-|
②口口① |⑦-⑧-|
3
⑧口⑦⑦ |①-②-|
⑥口⑤⑤ |③-④-|
④口③口 |⑤-⑥-|
②口①口 |⑦-⑧-|
4
⑧口口⑦ |①-②-|
⑥口口⑤ |③-④-|
④口口③ |⑤-⑥-|
②口口① |⑦-⑧-|
5
⑧口⑦⑦ |①-②-|
⑥口⑤⑤ |③-④-|
④口③口 |⑤-⑥-|
②口①口 |⑦-⑧-|
6
口口⑦口 |①-②-|
⑥⑧口⑤ |③-④-|
口口③口 |⑤-⑥-|
②④口① |⑦-⑧-|
7
⑥⑧口⑦ |①-②-|
口口⑤口 |③-④-|
②④口③ |⑤-⑥-|
口口①口 |⑦-⑧-|
8
口口口⑦ |①-②-|
⑥⑧⑤口 |③-④-|
口口③口 |⑤-⑥-|
②④口① |⑦-⑧-|
9
⑥⑧⑦口 |①-②-|
口口口⑤ |③-④-|
②④口③ |⑤-⑥-|
口口①口 |⑦-⑧-|
10
口口口① |①---|
口口口口 |----|
口口口口 |----|
口口口口 |----|
11
口⑦口口 |--①-|
口⑥①口 |②-③-|
口⑤②口 |④-⑤-|
口④③口 |⑥-⑦-|
12
②口口① |①-②-|
②口口① |③-④-|
④口口③ |----|
④口口③ |----|
13
口口⑦口 |--①-|
口①⑥口 |②-③-|
口②⑤口 |④-⑤-|
口③④口 |⑥-⑦-|
14
①口口② |①-②-|
①口口② |③-④-|
③口口④ |----|
③口口④ |----|
15
②⑦口口 |--①-|
④⑥①口 |②-③-|
口⑤口口 |④-⑤-|
口口③口 |⑥-⑦-|
16
②口口① |①-②-|
②口口① |③-④-|
④口口③ |----|
④口口③ |----|
17
口口口② |--①-|
口①口口 |②-③-|
口口口口
口③口口

口口口口
口⑤口④
口口口口 |④---|
口口口口 |⑤---|
18
口口口① |①-②-|
②口口口 |③-④-|
口口口③ |----|
④口口口 |----|
19
口⑦口口 |--①-|
口⑤⑥口 |②-③-|
口③④口 |④-⑤-|
口①②口 |⑥-⑦-|
20
②口口① |①-②-|
②口口① |③-④-|
④口口③ |----|
④口口③ |----|
21
口口⑦口 |--①-|
口⑥⑤口 |②-③-|
口④③口 |④-⑤-|
口②①口 |⑥-⑦-|
22
③口口④ |①-②-|
③口口④ |③-④-|
①口口② |----|
①口口② |----|
23
口⑦口② |--①-|
口⑤⑥④ |②-③-|
口③口口 |④-⑤-|
口①口口 |⑥-⑦-|
24
④口口③ |①-②-|
④口口③ |③-④-|
②口口① |----|
②口口① |----|
25
①口口口 |--①-|
口口口② |②-③-|
③口口口
口口口口

⑤⑤口口
口口口口
口口口口 |④---|
口口④④ |⑤---|
26
口口口口 |①-②-|
②口口① |③-④-|
④口口③ |----|
口口口口 |----|
27
口⑥口口 |①---|
②口⑤口 |②---|
②②④④ |③-④-|
①①③③ |⑤-⑥-|
28
②口口① |①-②-|
④口口③ |③-④-|
口口口⑤ |⑤---|
口口口口 |----|
29
口口口口 |①---|
②口⑤口 |②---|
②②④④ |③-④-|
①①③③ |⑤---|
30
③口口④ |--①-|
①口口② |②-③-|
口⑤⑤口 |④---|
口口口口 |⑤---|
31
口口口口 |①-②-|
④口③③ |③-④-|
口⑦⑥⑤ |⑤-⑥-|
②口①① |⑦---|
32
口口口口 |--①-|
口口口口 |②-③-|
②口口① |④---|
④⑤⑤③ |⑤---|
33
⑦⑤③① |①-②-|
⑧⑥④② |③-④-|
口口口口 |⑤-⑥-|
口口口口 |⑦-⑧-|
34
④③②① |①---|
④③②① |②---|
口⑤口口 |③---|
口口口口 |④-⑤-|
35
口口口口 |①-②-|
④口③③ |③-④-|
口⑦⑥⑤ |⑤-⑥-|
②口①① |⑦---|
36
口口口口 |--①-|
口口口口 |②-③-|
②口口① |④---|
④⑤⑤③ |⑤---|
37
②口⑤口 |①---|
②②④④ |②---|
①①③③ |③-④-|
口口口口 |⑤---|
38
口⑤⑤口 |①---|
口④④口 |②---|
③口口③ |③---|
②①①② |④-⑤-|
39
口口口② |----|
口口口口 |--①-|
口口口口 |②---|
①口口③ |--③-|
40
①口口口 |①---|
口②②口 |②-③-|
口口口口
口口③口

⑥口口⑤
口口口口
口口口口 |④-⑤-|
④口口⑦ |⑥-⑦-|
41
口口口③ |①---|
口口口口 |--②-|
口①①口 |③---|
②口口④ |--④-|
42
①口口口 |①---|
口②②口 |②-③-|
③口口口
口口口口

⑤口口④
口口口口
口⑦口口 |④-⑤-|
口口口⑥ |⑥-⑦-|
43
口①①③ |①---|
口口口口 |--②-|
口口口口 |③---|
②口口④ |--④-|
44
①口口口 |①---|
口②②口 |②-③-|
口口口口
口口③口

⑥口口⑤
口口口口
口口口口 |④-⑤-|
④口口⑦ |⑥-⑦-|
45
口口口③ |①---|
口口口口 |--②-|
口①①口 |③---|
②口口④ |--④-|
46
①口口口 |①---|
口②②口 |②-③-|
③口口口
口口口口

⑤口口④
口口口口
口口口口 |④-⑤-|
⑦口口⑥ |⑥-⑦-|
47
口①②口 |①-②-|
③口口④ |③-④-|
口⑤⑥口 |⑤-⑥-|
⑦口口⑧ |⑦-⑧-|
48
④口口⑧ |①-②-|
口③⑦口 |③-④-|
②口口⑥ |⑤-⑥-|
口①⑤口 |⑦-⑧-|
49
口①②口 |①-②-|
③口口④ |③-④-|
口⑤⑥口 |⑤-⑥-|
⑦口口⑧ |⑦-⑧-|
50
④口口⑧ |①-②-|
口③⑦口 |③-④-|
②口口⑥ |⑤-⑥-|
口①⑤口 |⑦-⑧-|
51
口①口口 |①---|
口②口口 |②---|
口③口口 |③---|
口④口口 |④---|
52
口口①口 |①---|
口口②口 |②---|
口口③口 |③---|
口口④口 |④---|
53
①口口口 |①---|
②口口口 |②---|
③口口口 |③---|
④口口口 |④---|
54
口口口① |①---|
口口口② |②---|
口口口③ |③---|
口口口④ |④---|
55
口①口口 |①---|
口①①口 |----|
口①①口 |----|
口口口口 |----|

不確定度: 0

最終更新:2014年12月11日 23:31