Don't Stop the Music
Dream Girls

BASIC

Level: 3
BPM: 123
Notes: 233

1
口口口口 |----|
口口口口 |----|
口口口口 |----|
口口口口 |----|
2
口口口口 |①---|
口③口口 |②---|
口④口口 |③--④|
口⑤②① |--⑤-|
3
口口口口 |①---|
③口②① |②---|
④口口口 |③--④|
⑤口口口 |--⑤-|
4
③口口口 |①---|
④口口口 |②---|
⑤口②① |③--④|
口口口口 |--⑤-|
5
口口口口 |①---|
口口口口 |----|
口②②口 |②---|
口①①口 |----|
6
口口口③ |①---|
①②口④ |②---|
口口口⑤ |③--④|
口口口口 |--⑤-|
7
口口口口 |①---|
口口③口 |②---|
①②④口 |③--④|
口口⑤口 |--⑤-|
8
口口口口 |①---|
口口口③ |②---|
口口口④ |③--④|
①②口⑤ |--⑤-|
9
口口口口 |①---|
口口口口 |----|
口②②口 |②---|
口①①口 |----|
10
口口口① |①---|
口口②口 |②---|
口③口口 |③---|
口口口口 |----|
11
①口口口 |①---|
口②口口 |②---|
口口③口 |③---|
口口口口 |----|
12
口口口口 |①---|
口口③口 |②---|
口②口口 |③---|
①口口口 |----|
13
口口口口 |①---|
口口口口 |----|
口②②口 |②---|
口①①口 |----|
14
口口口口 |①---|
口③口口 |②---|
口口②口 |③---|
口口口① |----|
15
口口口口 |①---|
口口③口 |②---|
口②口口 |③---|
①口口口 |----|
16
①口口口 |①---|
口②口口 |②---|
口口③口 |③---|
口口口口 |----|
17
口①①口 |①---|
口②②口 |----|
口口口口 |②---|
口口口口 |----|
18
口口口口 |----|
口口①口 |----|
口①口口 |①---|
口口口口 |----|
19
口口口口 |----|
口①口口 |----|
口口①口 |①---|
口口口口 |----|
20
口口口① |----|
口口口口 |----|
口口口口 |①---|
①口口口 |----|
21
口口口口 |----|
口①①口 |----|
口②②口 |①---|
口口口口 |②---|
22
口口口口 |①---|
口口②口 |----|
口②口口 |②---|
口①①口 |----|
23
口口口口 |----|
口①口口 |----|
口口①口 |①---|
口口口口 |----|
24
口口口口 |----|
口①①口 |----|
口①①口 |①---|
口口口口 |----|
25
口④④口 |①---|
口③③口 |②---|
口②②口 |③---|
口①①口 |④---|
26
口口口口 |①---|
口③③口 |②---|
口④④口 |③---|
②口口① |④---|
27
①口口② |①---|
④口口④ |②---|
③口口③ |③---|
口口口口 |④---|
28
口口④口 |①---|
口③口口 |②---|
口口②口 |③---|
口①口口 |④---|
29
④④④④ |①---|
口③③口 |②---|
口②口口 |③---|
口口①口 |④---|
30
口口口口 |①---|
口③③口 |②---|
口④④口 |③---|
①口口② |④---|
31
②口口① |①---|
④口口④ |②---|
③口口③ |③---|
口口口口 |④---|
32
口④口口 |①---|
口口③口 |②---|
口②口口 |③---|
口口①口 |④---|
33
④④④④ |①---|
口③③口 |②---|
口口②口 |③---|
口①口口 |④---|
34
口口口口 |①---|
口③③口 |②---|
口④④口 |③---|
②口口① |④---|
35
①口口② |①---|
④口口④ |②---|
③口口③ |③---|
口口口口 |④---|
36
口口④口 |①---|
口③口口 |②---|
口口②口 |③---|
口①口口 |④---|
37
④④④④ |①---|
口③③口 |②---|
口②口口 |③---|
口口①口 |④---|
38
口口口口 |①---|
口③③口 |②---|
口④④口 |③---|
①口口② |④---|
39
②口口① |①---|
④口口④ |②---|
③口口③ |③---|
口口口口 |④---|
40
口④口口 |①---|
口口③口 |②---|
口②口口 |③---|
口口①口 |④---|
41
口④④口 |①---|
口③③口 |②---|
口口②口 |③---|
口①口口 |④---|
42
口口口口 |①---|
口③②① |②---|
口④口口 |③--④|
口⑤口口 |--⑤-|
43
口口口口 |①---|
⑤口口口 |②---|
④口②① |③--④|
③口口口 |--⑤-|
44
②②①① |----|
口口口口 |①---|
口口口口 |----|
口口口口 |②---|
45
口口口口 |----|
②②①① |①---|
口口口口 |----|
口口口口 |②---|
46
口口口口 |①---|
口口口⑤ |②---|
口口口④ |③--④|
①②口③ |--⑤-|
47
口口口口 |①---|
口口⑤口 |②---|
①②④口 |③--④|
口口③口 |--⑤-|
48
口口口口 |①---|
口口口口 |②---|
口口③④ |③---|
①②口口 |④---|
49
口口③④ |①---|
①②口口 |②---|
口口口口 |③---|
口口口口 |④---|
50
口口口口 |①---|
②②④④ |②---|
口③①口 |③---|
口口口口 |④---|
51
口口口口 |①---|
②②口口 |②---|
口口口口 |③---|
③③①口 |----|

不確定度: 0

最終更新:2014年12月11日 23:30