Don't Stop the Music
Dream Girls

ADVANCED

Level: 6
BPM: 123
Notes: 359

1
口口口口 |----|
口口口口 |----|
口口口口 |----|
口口口口 |----|
2
口口口口 |①---|
口②①⑤ |②---|
口口口④ |③--④|
口口口③ |--⑤-|
3
口口口口 |①---|
⑤①②口 |②---|
④口口口 |③--④|
③口口口 |--⑤-|
4
口口口口 |①---|
口②①⑤ |②---|
口口口④ |③--④|
口口口③ |--⑤-|
5
口口口口 |①---|
口④口口 |----|
口②③口 |--②-|
口①①口 |③-④-|
6
口②①口 |①---|
口口口⑤ |②---|
口口口④ |③--④|
口口口③ |--⑤-|
7
口①②口 |①---|
⑤口口口 |②---|
④口口口 |③--④|
③口口口 |--⑤-|
8
口②①口 |①---|
口口口⑤ |②---|
口口口④ |③--④|
口口口③ |--⑤-|
9
口口口口 |①---|
口口④口 |----|
口③②口 |--②-|
口①①口 |③-④-|
10
⑦口口口 |①-②-|
⑥⑤口口 |③-④-|
口口③④ |⑤---|
①②口口 |⑥-⑦-|
11
口口口⑦ |①-②-|
口口⑤⑥ |③-④-|
④③口口 |⑤---|
口口②① |⑥-⑦-|
12
口口口口 |①-②-|
口⑤口口 |③-④-|
口口③④ |⑤---|
①②口口 |----|
13
④口口⑤ |--①-|
④口③⑤ |②-③-|
口②口口 |④--⑤|
口口①口 |----|
14
⑦⑤口口 |①-②-|
⑥口③④ |③-④-|
①②口口 |⑤---|
口口口口 |⑥-⑦-|
15
口口⑤⑦ |①-②-|
④③口⑥ |③-④-|
口口②① |⑤---|
口口口口 |⑥-⑦-|
16
口⑤口口 |①-②-|
口口③④ |③-④-|
①②口口 |⑤---|
口口口口 |----|
17
口⑤④口 |--①-|
⑤③口④ |②-③-|
口口②口 |④--⑤|
口①口口 |----|
18
口口④口 |----|
口②①③ |--①-|
③①②口 |②--③|
口④口口 |--④-|
19
口④口口 |----|
③①②口 |--①-|
口②①③ |②--③|
口口④口 |--④-|
20
口口④口 |----|
口②①③ |--①-|
③①②口 |②--③|
口④口口 |--④-|
21
口①口口 |----|
②口③口 |--①-|
口④口⑤ |②-③-|
口口口口 |④-⑤-|
22
口口④口 |①---|
口③③⑤ |--②-|
⑤②②口 |③--④|
口④①口 |--⑤-|
23
口③口口 |----|
④②②口 |--①-|
口①①④ |②--③|
口口③口 |--④-|
24
口口口口 |----|
口①②口 |--①-|
口①②口 |②---|
口口口口 |----|
25
⑦⑦口⑧ |①-②-|
⑤⑤口⑥ |③-④-|
③③口④ |⑤-⑥-|
①①口② |⑦-⑧-|
26
口口口口 |①--②|
③口口② |--③-|
口口口口
①口口①

⑤口口口
口口④口
口④口口 |④--⑤|
口口口⑤ |----|
27
口口口⑥ |①-②-|
口⑤②① |③-④-|
③④⑤口 |⑤--⑥|
⑥口口口 |----|
28
⑤口口口 |①-②-|
口⑦⑥④ |③-④-|
①口口③ |⑤-⑥⑦|
口口口② |----|
29
⑥⑥⑥⑥ |①-②-|
口⑤⑤④ |③-④-|
口⑦口③ |⑤--⑥|
口①口② |--⑦-|
30
口口口口 |①--②|
②口口③ |--③-|
口口口口
①口口①

口口口⑤
口④口口
口口④口 |④--⑤|
⑤口口口 |----|
31
⑥口口口 |①-②-|
①②⑤口 |③-④-|
口⑤④③ |⑤--⑥|
口口口⑥ |----|
32
口口口⑤ |①-②-|
④⑥⑦口 |③-④-|
③口口① |⑤-⑥⑦|
②口口口 |----|
33
⑥⑥⑥⑥ |①-②-|
④⑤⑤口 |③-④-|
③口⑦口 |⑤--⑥|
②口①口 |--⑦-|
34
口口口口 |①--②|
③口口② |--③-|
口口口口
①口口①

⑤口口口
口口④口
口④口口 |④--⑤|
口口口⑤ |----|
35
口口口⑥ |①-②-|
口⑤②① |③-④-|
③④⑤口 |⑤--⑥|
⑥口口口 |----|
36
⑤口口口 |①-②-|
口⑦⑥④ |③-④-|
①口口③ |⑤-⑥⑦|
口口口② |----|
37
⑥⑥⑥⑥ |①-②-|
口⑤⑤④ |③-④-|
口⑦口③ |⑤--⑥|
口①口② |--⑦-|
38
口口口口 |①--②|
②口口③ |--③-|
口口口口
①口口①

口口口⑤
口④口口
口口④口 |④--⑤|
⑤口口口 |----|
39
⑥口口口 |①-②-|
①②⑤口 |③-④-|
口⑤④③ |⑤--⑥|
口口口⑥ |----|
40
口口口⑤ |①-②-|
④⑥⑦口 |③-④-|
③口口① |⑤-⑥⑦|
②口口口 |----|
41
口⑥口口 |①-②-|
④口⑦口 |③-④-|
③⑧口⑤ |⑤-⑥-|
②口①口 |⑦-⑧-|
42
①③⑥口 |--①-|
口口口⑥ |②-③-|
口口口口 |④--⑤|
②④⑤口 |--⑥-|
43
①③⑥口 |--①-|
口口口⑥ |②-③-|
口口口口 |④--⑤|
②④⑤口 |--⑥-|
44
口口口口 |①-②-|
⑤⑥⑦⑧ |③-④-|
①②③④ |⑤-⑥-|
口口口口 |⑦-⑧-|
45
口口口口 |①-②-|
⑤⑥⑦⑧ |③-④-|
①②③④ |⑤-⑥-|
口口口口 |⑦-⑧-|
46
口⑦④② |①-②-|
⑦口口口 |③-④-|
①①口口 |⑤--⑥|
口⑥⑤③ |--⑦-|
47
口⑥③① |--①-|
⑥口口口 |②-③-|
口口口口 |④--⑤|
口⑤④② |--⑥-|
48
口口⑥③ |①--②|
口口口口 |--③-|
口⑤②口 |④--⑤|
口口④① |--⑥-|
49
⑥③口口 |①--②|
口口口口 |--③-|
②⑤口口 |④--⑤|
④①口口 |--⑥-|
50
口口口口 |①-②-|
口口口口 |③-④-|
⑧⑦⑥⑤ |⑤-⑥-|
④③②① |⑦-⑧-|
51
口口口口 |①-②-|
口⑤⑤口 |③-④-|
口口口口 |⑤---|
④③②① |----|

不確定度: 0

最終更新:2014年12月11日 23:30