電司 -DANCE-
LOLLIPOP F

BASIC

Level: 3
BPM: 130
Notes: 226

1
口口口口 |----|
口口口口 |----|
口口口口 |----|
口口口口 |----|
2
口口口口 |①---|
口①①口 |②---|
口②②口 |----|
口口口口 |----|
3
口口口口 |①---|
口②②口 |②---|
口①①口 |----|
口口口口 |----|
4
口口口口 |①---|
口①②口 |②---|
口①②口 |----|
口口口口 |----|
5
口口口口 |①---|
口①①口 |----|
口②②口 |----|
口口口口 |②---|
6
④③②① |①---|
口口口口 |②---|
口口口口 |③---|
口口口口 |④---|
7
口口口口 |①---|
④④②① |②---|
③③口口 |③---|
口口口口 |④---|
8
口口口口 |①---|
口口口口 |②---|
口口口口 |③---|
①②③④ |④---|
9
口口口口 |①---|
口口③③ |②---|
①②④④ |③---|
口口口口 |④---|
10
④③②① |①---|
口口口口 |②---|
口口口口 |③---|
口口口口 |④---|
11
口口口口 |①---|
④④②① |②---|
③③口口 |③---|
口口口口 |④---|
12
口口口口 |①---|
口口口口 |②---|
口口口口 |③---|
①②③④ |④---|
13
口口口口 |①---|
口①②口 |----|
口口口口 |②---|
口口口口 |----|
14
口③口口 |----|
口②口口 |①---|
口①口口 |②---|
口口口口 |③---|
15
口口①① |①---|
口口②② |----|
口口口口 |②---|
口口口口 |----|
16
口口③口 |----|
口口②口 |①---|
口口①口 |②---|
口口口口 |③---|
17
①①口口 |①---|
②②口口 |----|
口口口口 |②---|
口口口口 |----|
18
口口①口 |①---|
口口②口 |②---|
口口③口 |③---|
口口④口 |④---|
19
口①口口 |①---|
口②口口 |②---|
口③口口 |③---|
口④口口 |④---|
20
口口口口 |①---|
④③②① |②---|
口口口口 |③---|
口口口口 |④---|
21
口口口口 |①---|
口口口口 |②---|
口②①口 |③---|
口④③口 |④---|
22
口口口口 |----|
口口口口 |①---|
口口口② |②---|
口口口① |----|
23
口口口口 |①---|
口①口口 |----|
口口②口 |②---|
口口口口 |----|
24
口口口口 |----|
①口口口 |----|
口口口口 |①---|
口口口口 |----|
25
口③口口 |①---|
口口②口 |②---|
口①口口 |③---|
口口口口 |----|
26
口口口① |----|
口口②口 |①---|
口③口口 |②---|
口口口口 |③---|
27
④口口口 |①---|
③口口口 |②---|
②口口口 |③---|
①口口口 |④---|
28
口口口① |①---|
口②口口 |----|
口口口口 |②---|
口口口口 |----|
29
③口口③ |①---|
口口口口 |②---|
口②②口 |③---|
口①①口 |----|
30
口口口口 |----|
口口口口 |----|
口口口口 |----|
口口口口 |----|
31
口③③口 |①---|
口②②口 |②---|
口①①口 |③---|
口口口口 |----|
32
口口口口 |①---|
①③②④ |②---|
①③②④ |③---|
口口口口 |④---|
33
口口口口 |①---|
口口口口 |②---|
口口口口 |③---|
①②③④ |④---|
34
口口口口 |①---|
①③②④ |②---|
①③②④ |③---|
口口口口 |④---|
35
口口口口 |①---|
口口口口 |②---|
口口口口 |③---|
④③②① |④---|
36
口口④口 |①---|
口口口③ |②---|
口口②口 |③---|
口口口① |④---|
37
口①口口 |①---|
②口口口 |②---|
口③口口 |③---|
④口口口 |④---|
38
口口口口 |①---|
口②①口 |----|
口②①口 |②---|
口口口口 |----|
39
口①①口 |①---|
口口口口 |----|
口口口口 |----|
口口②口 |②---|
40
口口口口 |①---|
①③②④ |②---|
①③②④ |③---|
口口口口 |④---|
41
①②③④ |①---|
口口口口 |②---|
口口口口 |③---|
口口口口 |④---|
42
口口口口 |①---|
①③②④ |②---|
①③②④ |③---|
口口口口 |④---|
43
④③②① |①---|
口口口口 |②---|
口口口口 |③---|
口口口口 |④---|
44
口④口口 |①---|
③口口口 |②---|
口②口口 |③---|
①口口口 |④---|
45
口口①口 |①---|
口口口② |②---|
口口③口 |③---|
口口口④ |④---|
46
口口口口 |①---|
口①②口 |----|
口①②口 |②---|
口口口口 |----|
47
口①①口 |①---|
口口口口 |----|
口口口口 |----|
口口口口 |----|
48
口口口口 |①---|
④③②① |②---|
口口口口 |③---|
口口口口 |④---|
49
口口口口 |①---|
口口口口 |----|
口①①口 |②---|
口②②口 |----|
50
口口口口 |①---|
口口口口 |②---|
④③②① |③---|
口口口口 |④---|
51
④口②口 |①---|
口③口① |②---|
口口口口 |③---|
口口口口 |④---|
52
口口口口 |①---|
④③②① |②---|
口口口口 |③---|
口口口口 |④---|
53
口口口口 |①---|
口口口口 |----|
口①①口 |②---|
口②②口 |----|
54
口口口口 |①---|
口口口口 |②---|
④③②① |③---|
口口口口 |④---|
55
口③口① |①---|
④口②口 |②---|
口口口口 |③---|
口口口口 |④---|
56
口口口口 |①---|
③①②④ |②---|
③①②④ |③---|
口口口口 |④---|

不確定度: 0

最終更新:2014年12月11日 23:29