トルコ行進曲
T.M. Orchestra

BASIC

Level: 4
BPM: 150-199
Notes: 330

BPM: 150
1
口口口口 |----|
口口口口 |----|
口口口口 |----|
口口口口 |----|
2
口口口口 |①---|
口口口口 |②---|
口③④口 |③---|
口①②口 |④---|
3
口③④口 |①---|
口①②口 |②---|
口口口口 |③---|
口口口口 |④---|
4
①口口② |①---|
③口口④ |②---|
口口口口 |③---|
口口口口 |④---|
5
口口口口 |①---|
口口口口 |②---|
①口口② |③---|
③口口④ |④---|
6
口④④口 |①---|
口③③口 |②---|
口②②口 |③---|
口①①口 |④---|
7
①口口① |①---|
②⑤口② |②---|
口③口口 |③-④-|
口口④口 |⑤---|
8
④①③口 |①---|
口口②口 |②---|
口口口口 |③---|
口口口口 |④---|
9
口口口口 |①---|
口口口① |②---|
②口口口 |③---|
口④口③ |④---|
10
口③③口 |①---|
口④②口 |②---|
口①①口 |③---|
口口口口 |④---|
11
口口口口 |①---|
口④口口 |②---|
口①①口 |③---|
口③②口 |④---|

BPM: 151
12
④①③口 |①---|
口口②口 |②---|
口口口口 |③---|
口口口口 |④---|

BPM: 152
13
口口口口 |①---|
口口口① |②---|
②口口口 |③---|
口④口③ |④---|

BPM: 153
14
口③③口 |①---|
口④②口 |②---|
口①①口 |③---|
口口口口 |④---|

BPM: 154
15
④口口口 |①---|
口口口口 |②---|
口①①口 |③---|
口③②口 |④---|

BPM: 155
16
口口口③ |①---|
④①②口 |②---|
口口口口 |③---|
口口口口 |④---|

BPM: 156
17
④口口口 |①---|
口口口③ |②---|
口①②口 |③---|
口口口口 |④---|

BPM: 157
18
口口口③ |①---|
④①②口 |②---|
口口口口 |③---|
口口口口 |④---|

BPM: 158
19
口口口口 |①---|
口④口③ |②---|
口①②口 |③---|
口口口口 |④---|

BPM: 159
20
④①③口 |①---|
口口②口 |②---|
口口口口 |③---|
口口口口 |④---|

BPM: 160
21
口口口口 |①---|
口口口① |②---|
②口口口 |③---|
口④口③ |④---|

BPM: 161
22
口③③口 |①---|
口④②口 |②---|
口①①口 |③---|
口口口口 |④---|

BPM: 162
23
口口口口 |①---|
口口口口 |②---|
口①①口 |③---|
口③②口 |----|

BPM: 163
24
口口口口 |①---|
②口口② |----|
①口口① |②---|
口口口口 |----|

BPM: 164
25
口②①口 |①---|
口③③口 |②---|
口①②口 |③---|
口口口口 |----|

BPM: 165
26
口口口口 |①---|
②口口② |----|
①口口① |②---|
口口口口 |----|

BPM: 166
27
口口口口 |①---|
口②①口 |②---|
口③③口 |③---|
口①②口 |----|

BPM: 167
28
口口口口 |①---|
②口口② |----|
①口口① |②---|
口口口口 |----|

BPM: 168
29
口②①口 |①---|
口③③口 |②---|
口①②口 |③---|
口口口口 |----|

BPM: 169
30
口口口口 |①---|
②口口② |----|
①口口① |②---|
口口口口 |----|

BPM: 170
31
④口口口 |①---|
口②①口 |②---|
口③③口 |③---|
口①②口 |④---|

BPM: 171
32
口①④口 |①---|
口②③口 |②---|
口口口口 |③---|
口口口口 |④---|

BPM: 172
33
④口口① |①---|
口口口② |②---|
口口口③ |③---|
口口口口 |④---|

BPM: 173
34
口①④口 |①---|
口②③口 |②---|
口口口口 |③---|
口口口口 |④---|

BPM: 174
35
口口口① |①---|
口口口② |②---|
口口口口
口口口口

口口口④
口口口口
口③③口 |③---|
口口口口 |④---|

BPM: 174
36
口④①口 |①---|
口③②口 |②---|
口口口口 |③---|
口口口口 |④---|
37
①口口④ |①---|
②口口口 |②---|
③口口口 |③---|
口口口口 |④---|
38
口④①口 |①---|
口③②口 |②---|
口口口口 |③---|
口口口口 |④---|
39
④口口口 |①---|
①口口口 |②---|
口②口口 |③---|
③口口口 |④---|
40
口①④口 |①---|
口②③口 |②---|
口口口口 |③---|
口口口口 |④---|
41
口口口① |①---|
口口口② |②---|
口口④③ |③---|
口口口口 |④---|
42
口口口口 |①---|
③④口口 |②---|
②①口口 |③---|
口口口口 |④---|
43
口口口口 |①---|
口④①② |②---|
口③③口 |③---|
口口口口 |④---|

BPM: 175
44
④①③口 |①---|
口口②口 |②---|
口口口口 |③---|
口口口口 |④---|

BPM: 176
45
口口口口 |①---|
口口口① |②---|
②口口口 |③---|
口④口③ |④---|

BPM: 177
46
口③③口 |①---|
口④②口 |②---|
口①①口 |③---|
口口口口 |④---|

BPM: 178
47
口口口口 |①---|
口口口口 |②---|
口①①口 |③---|
口③②口 |----|

BPM: 179
48
口口口口 |①---|
②口口② |----|
①口口① |②---|
口口口口 |----|

BPM: 180
49
口②①口 |①---|
口③③口 |②---|
口①②口 |③---|
口口口口 |----|

BPM: 181
50
口口口口 |①---|
②口口② |----|
①口口① |②---|
口口口口 |----|

BPM: 182
51
口口口口 |①---|
口②①口 |②---|
口③③口 |③---|
口①②口 |----|

BPM: 183
52
口口口口 |①---|
②口口② |----|
①口口① |②---|
口口口口 |----|

BPM: 184
53
口②①口 |①---|
口③③口 |②---|
口①②口 |③---|
口口口口 |----|

BPM: 185
54
口口口口 |①---|
②口口② |----|
①口口① |②---|
口口口口 |----|

BPM: 186
55
口口口口 |①---|
口②①口 |②---|
口③③口 |③---|
口①②口 |----|

BPM: 187
56
①①①① |①---|
②②②② |----|
口口口口 |②---|
口口口口 |----|

BPM: 188
57
口口口口 |①---|
口口口口 |②---|
①②③口 |③---|
口口口口 |----|

BPM: 189
58
口口口口 |①---|
口口口口 |②---|
口口口口 |③---|
口③②① |----|

BPM: 190
59
①①①① |①---|
②②②② |----|
口口口口 |②---|
口口口口 |----|

BPM: 191
60
口口口口 |①---|
口口口口 |②---|
①②③口 |③---|
口口口口 |----|

BPM: 192
61
口口口口 |①---|
口口口口 |----|
口口口口 |②---|
①口③② |③---|

BPM: 193
62
③③③③ |①---|
口口口口 |②---|
口②②口 |③---|
口①口口 |----|

BPM: 194
63
口口口口 |①---|
①①①① |----|
②③口口 |②---|
口口口口 |③---|

BPM: 195
64
口口口口 |①---|
口口口口 |----|
口口①口 |②---|
口口③② |③---|

BPM: 196
65
②②②② |①---|
口口口口 |----|
口口口口 |②---|
口①口口 |----|

BPM: 197
66
口口口口 |①---|
①①①① |----|
②③口口 |②---|
口口口口 |③---|

BPM: 198
67
口口口口 |①---|
口口口口 |----|
口口①口 |②---|
②口口口 |----|

BPM: 199
68
口口口口 |①---|
口口口口 |②---|
口口口口 |③---|
口③②① |----|
69
口口口口 |①---|
②口口② |----|
口①①口 |②---|
口口口口 |----|
70
口口口口 |①---|
④④④④ |②---|
口③③口 |③---|
①②②① |④---|
71
①①①① |①---|
口口口口 |----|
口口口口 |----|
口口口口 |----|


不确定度: 0

タグ:

+ タグ編集
  • タグ:

このサイトはreCAPTCHAによって保護されており、Googleの プライバシーポリシー利用規約 が適用されます。

最終更新:2012年11月08日 18:40