電司 -DANCE-
LOLLIPOP F

ADVANCED

Level: 7
BPM: 130
Notes: 501

1
口口口口 |----|
口口口口 |----|
口口口口 |----|
口口口口 |----|
2
口口②① |①---|
口口②① |②---|
⑥⑤④③ |③-④-|
口口口口 |⑤-⑥-|
3
②口口① |①---|
②口口① |②---|
口⑤④③ |③-④-|
口口口口 |⑤---|
4
①②口口 |①---|
①②口口 |②---|
③④⑤⑥ |③-④-|
口口口口 |⑤-⑥-|
5
①口口④ |①-②-|
①口③② |③-④-|
口口口口
口口口口

口⑥⑤口
⑦口口⑦
口口口口 |⑤-⑥-|
口口口口 |⑦---|
6
③③⑦⑦ |①-②-|
⑧⑥②④ |③-④-|
⑤口口① |⑤-⑥-|
口口口口 |⑦-⑧-|
7
口口口口 |①-②-|
⑤口口① |③-④-|
口⑥②④ |⑤-⑥-|
③③⑦⑦ |⑦---|
8
③口④口 |①-②-|
③口②① |③-④-|
口口口口
口口口口

口⑧口⑦
口口口⑦
⑤⑥口口 |⑤-⑥-|
口口口口 |⑦-⑧-|
9
口口口口 |①-②-|
口口口口 |③-④-|
③口②①
③口④口

口口口口
⑤⑥口口
口口口⑦ |⑤-⑥-|
口口口⑦ |⑦---|
10
⑧③⑦④ |①-②-|
③⑥②⑦ |③-④-|
口⑤①口 |⑤-⑥-|
口口口口 |⑦-⑧-|
11
口口口口 |①-②-|
口⑤①口 |③-④-|
③⑥②⑦ |⑤-⑥-|
口③⑦④ |⑦---|
12
口③口口 |①-②-|
口口②④ |③-④-|
③口①口
口口口口

口口⑦口
口⑥口口
⑧⑤口⑦ |⑤-⑥-|
口口口口 |⑦-⑧-|
13
口口口口 |①-②-|
③⑤①⑦ |③-④-|
口⑥②④ |⑤-⑥-|
口③⑦口 |⑦---|
14
口口⑥⑤ |--①-|
口口④口 |②-③-|
⑤⑤③② |④---|
②②口① |⑤-⑥-|
15
口口口口 |--①-|
口口口③ |②-③-|
口口口①
②②口口

口口口④
口口⑤口
⑥⑥口⑥ |④-⑤-|
口口口口 |⑥---|
16
口口口⑥ |--①-|
口口⑤④ |②-③-|
⑤⑤②③ |④---|
②②①口 |⑤-⑥-|
17
口口①口 |--①-|
口口④③ |②-③-|
⑥⑥口⑤ |④-⑤-|
②②⑥口 |⑥---|
18
②②口① |--①-|
⑤⑤③② |②-③-|
口口④⑥ |④---|
口口口⑤ |⑤-⑥-|
19
②②①口 |--①-|
⑤⑤②③ |②-③-|
口口⑥④ |④---|
口口⑤口 |⑤-⑥-|
20
②②口③ |--①-|
⑤⑤②① |②-③-|
口口口⑥ |--④-|
口口⑤④ |⑤-⑥-|
21
⑤口③④ |①-②-|
⑦口③④ |③-④-|
①②口⑧ |⑤-⑥-|
①②口⑥ |⑦-⑧-|
22
口④口口 |----|
③⑤口口 |①-②-|
②口④④ |③---|
①口①① |④-⑤-|
23
口口口口 |--①-|
口口口口 |②-③-|
①②④④ |----|
③口②② |④---|
24
③④口口 |----|
⑤口口口 |①-②-|
口②④④ |--③-|
口①①① |④-⑤-|
25
口口口口 |--①-|
口③口口 |②-③-|
口②④④ |----|
①口②② |④---|
26
①口②② |--①-|
②⑦⑥⑥ |②-③-|
③⑥口口 |④-⑤-|
④⑤口口 |⑥-⑦-|
27
②①③③ |①-②-|
③⑧⑦⑦ |③-④-|
④⑦口口 |⑤-⑥-|
⑤⑥口口 |⑦-⑧-|
28
①口②② |--①-|
②口④④ |②-③-|
③口口口 |----|
口口口口 |④---|
29
口③口④ |①-②-|
③口④口 |③-④-|
口①口② |----|
①口②口 |----|
30
⑦⑤③① |①-②-|
口口口口 |③-④-|
口口口口 |⑤-⑥-|
②④⑥⑧ |⑦-⑧-|
31
口③③口 |①---|
口①②口 |②---|
口①②口 |③---|
口口口口 |----|
32
口口口口 |①---|
①③④② |②---|
①③④② |③---|
①③④② |④---|
33
①①口口 |①---|
①口口口 |----|
口口③② |--②-|
口口口④ |③-④-|
34
①③④② |①---|
①③④② |②---|
①③④② |③---|
口口口口 |④---|
35
③口口① |①-②-|
口口口口 |--③-|
②口口口
口②口口

口口口口
口口口口
⑤口⑥④ |④---|
口⑤④口 |⑤-⑥-|
36
口口口口 |①---|
口②①口 |②-③-|
口③口④ |④---|
⑤口④⑤ |⑤---|
37
②②④④ |①-②-|
①①③③ |--③-|
口口口口 |④---|
口⑤口⑥ |⑤-⑥-|
38
口口口口 |①---|
①口②口 |--②-|
①口②口
①口②口

③口口口
③口口口
③口口口 |----|
口口口口 |--③-|
39
口口口④ |----|
口③④口 |----|
口口②② |①-②-|
口①口口 |③-④-|
40
口口口口 |①---|
①③④② |②---|
①③④② |③---|
①③④② |④---|
41
④③②① |①-②-|
口口口口 |③-④-|
口口口口 |⑤-⑥-|
⑤⑥⑦⑧ |⑦-⑧-|
42
①③④② |①---|
①③④② |②---|
①③④② |③---|
口口口口 |④---|
43
⑤⑥口口 |①-②-|
⑤口口⑧ |③-④-|
口口口⑦ |⑤-⑥-|
④③②① |⑦-⑧-|
44
口口①① |①---|
②口口⑤ |②-③-|
③口口⑤ |④---|
④④口口 |⑤---|
45
⑤②口⑧ |①-②-|
②⑤③⑦ |③-④-|
口口④⑥ |⑤-⑥-|
口口①口 |⑦-⑧-|
46
口口口口 |①---|
①口②口 |--②-|
①口②口
①口②口

③口口口
③口口口
③口口口 |----|
口口口口 |--③-|
47
口口口口 |----|
口口口口 |----|
口口口口 |----|
口口口口 |----|
48
⑤⑥口⑧ |①-②-|
①②口④ |③-④-|
口口⑦⑦ |⑤-⑥-|
口口③③ |⑦-⑧-|
49
口口口口 |①---|
①口②口 |--②-|
①口②口
①口②口

③口口口
③口口口
③口口口 |----|
口口口口 |--③-|
50
口口口⑧ |①-②-|
⑤②口④ |③-④-|
口①⑦⑦ |⑤-⑥-|
口⑥③③ |⑦-⑧-|
51
⑤⑥口口 |①-②-|
口口⑧④ |③-④-|
①②⑦⑦ |⑤-⑥-|
口口③③ |⑦-⑧-|
52
⑤⑥③③ |①-②-|
口口⑦⑦ |③-④-|
口口口④ |⑤-⑥-|
①②口⑧ |⑦-⑧-|
53
口口口口 |①---|
①口②口 |--②-|
①口②口
①口②口

③口口口
③口口口
③口口口 |----|
口口口口 |--③-|
54
口口③③ |①-②-|
口口⑦⑦ |③-④-|
⑤⑥口④ |⑤-⑥-|
①②口⑧ |⑦-⑧-|
55
口口③③ |①-②-|
①②⑦口 |③-④-|
口口⑦④ |⑤-⑥-|
⑤⑥口⑧ |⑦-⑧-|
56
①口口② |①---|
①③④② |②---|
①③④② |③---|
口③④口 |④---|

不確定度: 0

最終更新:2014年12月11日 23:28