非公開日誌
みきとP feat.GUMI

BASIC

Level: 4
BPM: 190
Notes: 318

1
口口口口 |----|
口口口口 |----|
口口口口 |----|
口口口口 |----|
2
口口口口 |①---|
口④③口 |②---|
口②①口 |③---|
口口口口 |④---|
3
口口口口 |①---|
①口口① |②---|
②口口② |③---|
③口口③ |----|
4
口口口口 |①---|
口④③口 |②---|
口②①口 |③---|
口口口口 |④---|
5
③口口③ |①---|
②口口② |②---|
①口口① |③---|
口口口口 |----|
6
口②①口 |①---|
口④③口 |②---|
口口口口 |③---|
口口口口 |④---|
7
口口口口 |①---|
口口口口 |②---|
口②①口 |③---|
③口口③ |----|
8
口口口口 |①---|
口④③口 |②---|
口②①口 |③---|
口口口口 |④---|
9
①口口① |①---|
②口口② |②---|
③口口③ |③---|
④口口④ |④---|
10
口口口口 |①---|
口口口口 |----|
口口②口 |②---|
口①①口 |----|
11
口口②口 |①---|
口口①口 |----|
口口口口 |②---|
口口口口 |----|
12
口④口口 |①---|
③口口口 |②---|
②口口口 |③---|
口①口口 |④---|
13
口口口口 |①---|
口口①口 |②---|
口③②口 |----|
口口口口 |③---|
14
口口④口 |①---|
口口口③ |②---|
口口口② |③---|
口口①口 |④---|
15
口口口口 |①---|
口①口口 |②---|
口②口口 |----|
口口口口 |----|
16
口④口口 |①---|
③口口口 |②---|
②口口口 |③---|
口①口口 |④---|
17
口口口口 |①---|
口口①口 |②---|
口③②口 |----|
口口口口 |③---|
18
口口④口 |①---|
口口口③ |②---|
口口口② |③---|
口口①口 |④---|
19
口口口口 |----|
口①①口 |----|
口②②口 |①---|
口口口口 |②---|
20
口口口④ |①---|
口口口③ |②---|
口口口② |③---|
口口口① |④---|
21
口口口口 |①---|
口①②口 |②---|
口③④口 |③---|
口口口口 |④---|
22
④口口口 |①---|
③口口口 |②---|
②口口口 |③---|
①口口口 |④---|
23
口口口口 |①---|
口②①口 |②---|
口口口口 |----|
口口口口 |----|
24
口口口④ |①---|
口口口③ |②---|
口口口② |③---|
口口口① |④---|
25
口口口口 |①---|
口①②口 |②---|
口③④口 |③---|
口口口口 |④---|
26
④口口口 |①---|
③口口口 |②---|
②口口口 |③---|
①口口口 |④---|
27
口口口口 |①---|
口②①口 |②---|
口口口口 |----|
口口口口 |----|
28
口口口口 |①---|
口口口口 |----|
口口口② |②---|
口口口① |----|
29
口口口口 |①---|
口口口口 |----|
②口口口 |②---|
①口口口 |----|
30
口口口口 |①---|
口口口口 |----|
口口②口 |②---|
口口①口 |----|
31
口口口口 |①---|
口口口口 |----|
口②口口 |②---|
口①口口 |----|
32
口口口② |①---|
口口口① |----|
口口口口 |②---|
口口口口 |----|
33
②口口口 |①---|
①口口口 |----|
口口口口 |②---|
口口口口 |----|
34
口口口口 |①---|
口口口口 |----|
口口口② |②---|
口口口① |----|
35
口口口口 |①---|
口口口口 |----|
②口口口 |②---|
①口口口 |----|
36
口口口① |①---|
口口口② |----|
口口口口 |②---|
口口口口 |----|
37
①口口口 |①---|
②口口口 |----|
口口口口 |②---|
口口口口 |----|
38
口口口口 |①---|
口口①口 |----|
口口②口 |②---|
口口口口 |----|
39
口口口口 |①---|
口①口口 |----|
口②口口 |②---|
口口口口 |----|
40
口口口口 |①---|
口口口口 |②---|
口④③口 |③---|
口②①口 |④---|
41
口④③口 |①---|
口②①口 |②---|
口口口口 |③---|
口口口口 |④---|
42
口口口口 |①---|
口口口口 |②---|
④口口③ |③---|
②口口① |④---|
43
口口口③ |①---|
②口口① |②---|
口口口口 |③---|
口口口口 |----|
44
口口口口 |①---|
口口口口 |②---|
口④③口 |③---|
口②①口 |④---|
45
口④③口 |①---|
口②①口 |②---|
口口口口 |③---|
口口口口 |④---|
46
①口口① |①---|
②口口② |②---|
③口口③ |③---|
④口口④ |④---|
47
口口口口 |①---|
口口口口 |----|
口②②口 |②---|
口①①口 |----|
48
口②①口 |①---|
口④③口 |②---|
口口口口 |③---|
口口口口 |④---|
49
口口口口 |①---|
口口口口 |②---|
口②①口 |③---|
口④③口 |④---|
50
④口口④ |①---|
③口口③ |②---|
②口口② |③---|
①口口① |④---|
51
口①①口 |①---|
口②②口 |----|
口口口口 |②---|
口口口口 |----|
52
口口口口 |①---|
口口口口 |----|
口①①③ |②---|
口口口② |③---|
53
口口③口 |①---|
口口②口 |②---|
口口①口 |③---|
口口口口 |----|
54
口口口① |①---|
口口口口 |----|
③口口口 |②---|
②口口口 |③---|
55
口③口口 |①---|
口②口口 |②---|
口①口口 |③---|
口口口口 |----|
56
口口口口 |①---|
口口口口 |----|
口口口② |②---|
口口口① |----|
57
口口口② |①---|
口口口① |----|
口口口口 |②---|
口口口口 |----|
58
口①①口 |①---|
口②②口 |②---|
口③③口 |③---|
口④④口 |④---|
59
口口口口 |----|
口①①口 |----|
口口口口 |①---|
口口口口 |----|
60
口口口④ |①---|
口口口③ |②---|
口口口② |③---|
口口口① |④---|
61
④口口口 |①---|
③口口口 |②---|
②口口口 |③---|
①口口口 |④---|
62
口④④口 |①---|
口③③口 |②---|
口②②口 |③---|
口①①口 |④---|
63
①口口① |①---|
②口口② |----|
口口口口 |②---|
口口口口 |----|
64
口口口④ |①---|
口口口③ |②---|
口口口② |③---|
口口口① |④---|
65
④口口口 |①---|
③口口口 |②---|
②口口口 |③---|
①口口口 |④---|
66
口①①口 |①---|
口②②口 |②---|
口③③口 |③---|
口④④口 |④---|
67
口口口口 |①---|
口口口口 |----|
②口口② |②---|
①口口① |----|
68
口口口口 |①---|
口口口口 |----|
口①口③ |②---|
口口口② |③---|
69
口口③口 |①---|
口口②口 |②---|
口口①口 |③---|
口口口口 |----|
70
口口口① |①---|
口口口口 |----|
③口口口 |②---|
②口口口 |③---|
71
口③口口 |①---|
口②口口 |②---|
口①口口 |③---|
口口口口 |----|
72
口口口口 |①---|
口口口口 |----|
口口口② |②---|
口口口① |----|
73
口口口② |①---|
口口口① |----|
口口口口 |②---|
口口口口 |----|
74
口①①口 |①---|
口②②口 |②---|
口③③口 |③---|
口④④口 |④---|
75
口口③口 |----|
口②①口 |①---|
口口口口 |②---|
口口口口 |③---|
76
①口口口 |①---|
②口口口 |----|
口口口口 |②---|
口口口口 |----|
77
口口口口 |①---|
口口口口 |----|
①口口口 |②---|
②口口口 |----|
78
口口口① |①---|
口口口② |----|
口口口口 |②---|
口口口口 |----|
79
口口口口 |①---|
口口口口 |----|
口口口① |②---|
口口口② |----|
80
口口口口 |①---|
口口口口 |----|
口①①口 |----|
口口口口 |----|
81
口口口口 |①---|
口①①口 |----|
口口口口 |----|
口口口口 |----|
82
口口口口 |----|
口口口口 |----|
口口口口 |----|
口口口口 |----|
83
口口口口 |----|
口口口口 |----|
口口口口 |----|
口口口口 |----|
84
口口口口 |①---|
口口口口 |②---|
口口口口 |③---|
④③②① |④---|
85
口口口口 |①---|
口口口口 |②---|
④③②① |③---|
口口口口 |④---|
86
口口口口 |①---|
④③②① |②---|
口口口口 |③---|
口口口口 |④---|
87
④③②① |①---|
口口口口 |②---|
口口口口 |③---|
口口口口 |④---|
88
口口口口 |①---|
④③②① |②---|
口口口口 |③---|
口口口口 |④---|
89
口口口口 |①---|
口口口口 |②---|
④③②① |③---|
口口口口 |④---|
90
口口口口 |①---|
④③②① |②---|
口口口口 |③---|
口口口口 |④---|
91
口口口口 |①---|
口口口口 |②---|
④③②① |③---|
口口口口 |④---|

不確定度: 0

最終更新:2014年12月11日 23:25