非公開日誌
みきとP feat.GUMI

ADVANCED

Level: 6
BPM: 190
Notes: 468

1
口口口口 |----|
口口口口 |----|
口口口口 |----|
口口口口 |----|
2
⑥口口③ |①-②-|
口⑤②口 |③---|
口①④口 |④-⑤-|
口口口口 |⑥---|
3
口口口口 |①---|
①口口① |②---|
②口口② |③---|
③口口③ |----|
4
⑥口口③ |①-②-|
口⑤②口 |③---|
口①④口 |④-⑤-|
口口口口 |⑥---|
5
口口口口 |①---|
③口口③ |②---|
②口口② |③---|
①口口① |----|
6
口②①口 |①-②-|
口④③口 |③-④-|
口⑥⑤口 |⑤-⑥-|
口⑧⑦口 |⑦-⑧-|
7
②口口① |①-②-|
④口口③ |③-④-|
口口⑤⑤ |⑤---|
口口口口 |----|
8
口①①口 |①---|
口②②口 |②---|
口③③口 |③---|
口④④口 |④---|
9
④口口④ |①---|
口③③口 |②---|
②口口② |③---|
①口口① |④---|
10
口①①口 |①---|
口口口口 |----|
口口口口 |----|
口口口口 |----|
11
口口口口 |----|
口口口口 |----|
口口①口 |--①-|
②口口③ |②-③-|
12
⑤⑦⑧⑥ |①-②-|
③口口④ |③-④-|
①口口② |⑤-⑥-|
口口口口 |⑦-⑧-|
13
口口口口 |①-②-|
口①②口 |③-④-|
口③④口 |--⑤-|
⑦⑤口⑥ |⑥-⑦-|
14
口口⑤口 |①-②-|
④口口③ |③-④-|
②口口① |--⑤-|
口口⑥口 |--⑥-|
15
口口口口 |①-②-|
口①口口 |③---|
口口②口 |----|
口口口③ |----|
16
口口①口 |①-②-|
⑤②口⑥ |③-④-|
⑦口③口 |--⑤-|
口④口口 |⑥-⑦-|
17
口口口口 |①-②-|
口②③口 |③-④-|
口④口① |--⑤-|
⑤⑥⑦口 |⑥-⑦-|
18
②口口③ |①---|
口④⑤口 |②-③-|
口⑥⑦口 |④-⑤-|
口口口① |⑥-⑦-|
19
口口口口 |----|
口①①口 |----|
口②②口 |①---|
口口口口 |②---|
20
口口⑦⑦ |①-②-|
⑥口口口 |③-④-|
④口口⑤ |⑤---|
②①①③ |⑥-⑦-|
21
口口④口 |--①-|
口口①① |--②-|
口口②② |--③-|
口口③③ |--④-|
22
⑥口口⑤ |①---|
口④口⑦ |②-③-|
①口③口 |④-⑤-|
②口口口 |⑥-⑦-|
23
口口口口 |--①-|
口口口口 |----|
口口口口 |----|
①①口② |--②-|
24
③⑦⑥口 |①-②-|
口口②口 |③-④-|
口①口口 |⑤---|
口⑤④口 |⑥-⑦-|
25
口口口① |--①-|
口口口② |--②-|
口口口③ |--③-|
口④口口 |--④-|
26
⑧⑥⑦口 |①-②-|
口④⑤口 |③-④-|
口②③口 |⑤-⑥-|
口口①口 |⑦-⑧-|
27
口口口② |--①-|
口口口口 |----|
口口①① |----|
口口口口 |②---|
28
④口口口 |①---|
口口①口 |--②-|
口口口② |③---|
口口口③ |④---|
29
口口④口 |①---|
口①口口 |--②-|
②口口口 |③---|
③口口口 |④---|
30
口④口口 |①---|
口口口① |--②-|
口口②口 |③---|
口口③口 |④---|
31
口口口口 |①---|
①口口口 |--②-|
口②口口 |③---|
口③口④ |④---|
32
口口口③ |①---|
口口口② |--②-|
口口①口 |③---|
④口口口 |④---|
33
③口口口 |①---|
②口口口 |--②-|
口①口口 |③---|
口口④口 |④---|
34
口口③口 |①---|
口口②口 |--②-|
口口口① |③---|
口④口口 |④---|
35
口③口④ |①---|
口②口口 |--②-|
①口口口 |③---|
口口口口 |④---|
36
③②口口 |①---|
口口①口 |--②-|
口口口口 |③---|
口口口④ |④---|
37
口口口口 |①---|
口口口④ |--②-|
口口①口 |③---|
③②口口 |④---|
38
口口①口 |①---|
③②口口 |--②-|
口口口④ |③---|
口口口口 |④---|
39
口口口口 |①---|
口口口口 |--②-|
③②口口 |③---|
口④①口 |④---|
40
口口口口 |①---|
口口口口 |②---|
③口④④ |③---|
①口②② |④---|
41
③口④④ |①---|
①口②② |②---|
口口口口 |③---|
口口口口 |④---|
42
口①口口 |①---|
①口④口 |----|
口③口口 |--②-|
口口②口 |③-④-|
43
口口口口 |----|
口口口口 |----|
口口②口 |①---|
口口①口 |②---|
44
③③①① |①---|
口口口口 |②---|
口②④口 |③---|
口口口口 |④---|
45
口口口口 |①---|
③③①① |②---|
口口口口 |③---|
口②④口 |④---|
46
②①①② |①---|
③口口③ |②---|
④口口④ |③---|
口口口口 |④---|
47
口口口口 |①---|
口②②口 |----|
口口口口 |②---|
①口口① |----|
48
①①③③ |①---|
口口口口 |②---|
口④②口 |③---|
口口口口 |④---|
49
口口口口 |①---|
①①③③ |②---|
④④②口 |③---|
口口口口 |④---|
50
②②口口 |①---|
口口③③ |②---|
④④口口 |③---|
口口①① |④---|
51
口②②口 |①---|
口③③口 |----|
口口口口 |②---|
口口①① |③---|
52
口口口口 |----|
口口口口 |----|
口①口口 |①---|
口口②口 |②---|
53
口口③口 |①---|
口口口② |②---|
口口口① |③---|
口口口口 |----|
54
口口口口 |----|
口口口口 |----|
口口①口 |①---|
口②口口 |②---|
55
口③口口 |①---|
②口口口 |②---|
①口口口 |③---|
口口口口 |----|
56
口口口口 |①---|
口口口口 |②---|
④口③③ |③---|
②口①① |④---|
57
④口③③ |①---|
②口①① |②---|
口口口口 |③---|
口口口口 |④---|
58
口口口口 |①---|
口①①口 |②---|
③②②③ |③---|
④口口④ |④---|
59
口口口口 |----|
口口口口 |----|
①口口① |①---|
口口口口 |----|
60
③口口① |①---|
③口口① |②---|
口口口口 |③---|
口②④口 |④---|
61
口③①口 |①---|
口③①口 |②---|
口口口口 |③---|
口②④口 |④---|
62
①口口① |①---|
②口口② |②---|
③口口③ |③---|
④口口④ |④---|
63
口口口口 |①---|
口②②口 |----|
口口口口 |②---|
口①①口 |----|
64
①口口③ |①---|
①口口③ |②---|
口口口口 |③---|
口④②口 |④---|
65
口①③口 |①---|
口①③口 |②---|
口口口口 |③---|
口④②口 |④---|
66
①口口① |①---|
③口口③ |②---|
④口口④ |③---|
②口口② |④---|
67
口①①口 |①---|
口口口口 |----|
口②②口 |②---|
口③③口 |③---|
68
口口口口 |----|
口口口口 |----|
口口口② |①---|
口口口① |②---|
69
④口③口 |①---|
口口②口 |②---|
口口①口 |③---|
口口口口 |④---|
70
口口口① |①---|
口口口口 |----|
③口口口 |②---|
②口口口 |③---|
71
口③口④ |①---|
口②口口 |②---|
口①口口 |③---|
口口口口 |④---|
72
口口口口 |①---|
口口口口 |②---|
③③口④ |③---|
①①口② |④---|
73
③③口④ |①---|
①①口② |②---|
口口口口 |③---|
口口口口 |④---|
74
口口口口 |①---|
口①①口 |②---|
③②②③ |③---|
④口口④ |④---|
75
口③③口 |----|
②口口② |①---|
口①①口 |②---|
口口口口 |③---|
76
②口口① |①---|
口④③口 |②---|
口口口口 |③---|
口口口口 |④---|
77
口口口口 |①---|
口口口口 |②---|
②口口① |③---|
口④③口 |④---|
78
口②口① |①---|
④口③口 |②---|
口口口口 |③---|
口口口口 |④---|
79
口口口口 |①---|
口口口口 |②---|
②②口① |③---|
④④③③ |④---|
80
②口①口 |①---|
口④口③ |②---|
口口口口 |③---|
口口口口 |④---|
81
口口口口 |①---|
口口口口 |②---|
②口①口 |③---|
口④口③ |④---|
82
口②口① |①---|
④口③口 |②---|
口口口口 |③---|
口口口口 |④---|
83
口口口口 |①---|
口口口口 |②---|
口②口① |③---|
④口③口 |④---|
84
②口①① |①---|
口④口③ |②---|
口口口口 |③---|
口口口口 |④---|
85
口口口口 |①---|
口口口口 |②---|
②口①① |③---|
口④口③ |④---|
86
口②①① |①---|
④口③口 |②---|
口口口口 |③---|
口口口口 |④---|
87
口口口口 |①---|
口口口口 |②---|
口②①① |③---|
④口③口 |④---|
88
②口①① |①---|
口④口③ |②---|
口口口口 |③---|
口口口口 |④---|
89
口口口口 |①---|
口口口口 |②---|
②口①口 |③---|
口④口③ |④---|
90
口②①① |①---|
④口③口 |②---|
口口口口 |③---|
口口口口 |④---|
91
口口口口 |①---|
口口口口 |②---|
口②口① |③---|
④口③口 |④---|

不確定度: 0

最終更新:2014年12月11日 23:25