ルービックキューブ
otetsu feat.GUMI

BASIC

Level: 5
BPM: 140
Notes: 400

1
口口口口 |----|
口口口口 |----|
口口口口 |----|
口口口口 |----|
2
口口口口 |----|
口口口口 |----|
口口口口 |----|
口口口口 |----|
3
口口口口 |----|
口口口口 |----|
口口口口 |----|
口口口口 |----|
4
口口口口 |----|
口口口口 |----|
口口口口 |----|
口口口口 |----|
5
口口口口 |----|
口口口口 |----|
口口口口 |----|
口口口口 |----|
6
口口口口 |①---|
③③①① |②---|
口④②口 |③---|
口口口口 |④---|
7
口口口口 |①---|
口口①① |②---|
口口②口
口口口口

口③③口
口④④口
口口口口 |③---|
口口口口 |④---|
8
口口口口 |①---|
口口口口 |②---|
③③①① |③---|
口④②口 |④---|
9
口口口口 |①---|
口④口口 |②---|
③③①① |③---|
口口②口 |④---|
10
口口口口 |①---|
③③①① |②---|
口④②口 |③---|
口口口口 |④---|
11
口口口口 |①---|
口口①① |②---|
口口②口
口口口口

口③③口
口④④口
口口口口 |③---|
口口口口 |④---|
12
口口口口 |①---|
口口口口 |②---|
③③①① |③---|
口④②口 |④---|
13
口口口口 |①---|
口④口口 |②---|
③③①① |③---|
口口②口 |④---|
14
口口口口 |①---|
口口口口 |----|
口②②口 |②---|
口①①口 |----|
15
口①②口 |①---|
口②①口 |----|
口口口口 |②---|
口口口口 |----|
16
口口口口 |①---|
①口口① |②---|
②口口② |③---|
③口口③ |----|
17
口口口口 |①---|
口口口口 |----|
口①②口 |②---|
口口口口 |----|
18
口口口口 |①---|
口口口口 |②---|
口③③口 |③---|
口①②口 |----|
19
②口口② |①---|
①口口① |----|
口口口口 |②---|
口口口口 |----|
20
口①②口 |①---|
口③④口 |②---|
口口口口 |③---|
口口口口 |④---|
21
口口口口 |①---|
③④④③ |②---|
②口口② |③---|
①口口① |④---|
22
③口口③ |①---|
④口口④ |②---|
②①①② |③---|
口口口口 |④---|
23
口口口口 |①---|
③②②③ |②---|
④①①④ |③---|
口口口口 |④---|
24
口口口口 |①---|
③②②③ |②---|
④①①④ |③---|
口口口口 |④---|
25
④③③④ |①---|
口②②口 |②---|
口①①口 |③---|
口口口口 |④---|
26
口口口口 |①---|
①口口① |②---|
②④④② |③---|
口③③口 |④---|
27
口口口口 |①---|
①②②① |②---|
④③③④ |③---|
口口口口 |④---|
28
口口口口 |①---|
①④④① |②---|
③②②③ |③---|
口口口口 |④---|
29
口口口口 |①---|
④口口④ |②---|
③②②③ |③---|
口①①口 |④---|
30
①①①① |①---|
③③③③ |②---|
②口口② |③---|
④口口④ |④---|
31
口口口口 |①---|
口③口口 |②---|
口②口口 |③---|
口①口口 |----|
32
口口①口 |①---|
口口②口 |②---|
口口③口 |③---|
口口④口 |④---|
33
口口口口 |①---|
口③口口 |②---|
口②口口 |③---|
口①口口 |----|
34
口口①口 |①---|
口口②口 |②---|
口③③口 |③---|
口口口口 |----|
35
口口口口 |①---|
①④①④ |②---|
②③②③ |③---|
口口口口 |④---|
36
口口口口 |①---|
①④①④ |②---|
②③②③ |③---|
口口口口 |④---|
37
②①②① |①---|
③④③④ |②---|
口口口口 |③---|
口口口口 |④---|
38
口口口口 |①---|
④口④口 |②---|
③②③② |③---|
口①口① |④---|
39
②①②① |①---|
④③④③ |②---|
口口口口 |③---|
口口口口 |④---|
40
口口口口 |①---|
口口口口 |②---|
④①④① |③---|
③②③② |④---|
41
口口口口 |①---|
①②①② |②---|
③④③④ |③---|
口口口口 |④---|
42
口口口口 |①---|
②①②① |②---|
③④③④ |③---|
口口口口 |④---|
43
口口口口 |①---|
①②口口 |②---|
口口③④ |③---|
口口口口 |④---|
44
口口口口 |①---|
口口②① |②---|
④③口口 |③---|
口口口口 |④---|
45
口口口口 |①---|
④口口④ |②---|
口③③口 |③---|
②①①② |④---|
46
口口口口 |①---|
④口口④ |②---|
②③③② |③---|
口①①口 |④---|
47
口口口口 |①---|
口口口口 |②---|
④③②① |③---|
口口口口 |④---|
48
口口口口 |①---|
①②③④ |②---|
口口口口 |③---|
口口口口 |④---|
49
口口口口 |①---|
④口口④ |②---|
②③③② |③---|
口①①口 |④---|
50
口①①口 |①---|
口②②口 |②---|
③口口③ |③---|
口④④口 |④---|
51
口口口口 |①---|
③口②① |②---|
口④④口 |③---|
口口口口 |--④-|
52
口口口口 |----|
①②口口 |----|
口口口口 |①---|
口口口口 |②---|
53
口口口口 |①---|
口口口① |--②-|
口②②口 |----|
口口口口 |----|
54
口口口口 |①---|
③口②① |②---|
口④④口 |③---|
口口口口 |--④-|
55
口口口口 |----|
①②口口 |----|
口口口口 |①---|
口口口口 |②---|
56
口口口口 |①---|
口口口① |--②-|
口②②口 |----|
口口口口 |----|
57
口口口口 |①---|
③口口③ |②---|
②口口② |③---|
①口口① |----|
58
口口口口 |----|
口①①口 |①---|
口②②口 |②---|
口③③口 |③---|
59
口口口口 |①---|
③口口③ |②---|
②口口② |③---|
①口口① |----|
60
口口口口 |----|
口①①口 |①---|
口②②口 |②---|
口③③口 |③---|
61
口口口口 |①---|
①④①④ |②---|
②③②③ |③---|
口口口口 |④---|
62
口口口口 |①---|
①④①④ |②---|
②③②③ |③---|
口口口口 |④---|
63
②①②① |①---|
③④③④ |②---|
口口口口 |③---|
口口口口 |④---|
64
口口口口 |①---|
④口④口 |②---|
③②③② |③---|
口①口① |④---|
65
②①②① |①---|
④③④③ |②---|
口口口口 |③---|
口口口口 |④---|
66
口口口口 |①---|
口口口口 |②---|
④①④① |③---|
③②③② |④---|
67
口口口口 |①---|
③②③② |②---|
④①④① |③---|
口口口口 |④---|
68
④③④③ |①---|
口②口② |②---|
口①口① |③---|
口口口口 |④---|
69
口口口口 |①---|
口①①口 |----|
口①①口 |----|
口口口口 |----|

不確定度: 0

最終更新:2014年12月11日 23:24