ケッペキショウ
すこっぷ feat.GUMI

BASIC

Level: 5
BPM: 190
Notes: 366

1
口口口口 |----|
口①口口 |----|
口口口口 |----|
口口口口 |①---|
2
口口口口 |①---|
口口口口 |②---|
口口口口 |③---|
④③②① |④---|
3
口口口口 |①---|
口口口口 |②---|
④③②① |③---|
口口口口 |④---|
4
口口口口 |①---|
④③②① |②---|
口口口口 |③---|
口口口口 |④---|
5
④③②① |①---|
口口口口 |②---|
口口口口 |③---|
口口口口 |④---|
6
④③②① |①---|
口口口口 |②---|
口口口口 |③---|
口口口口 |④---|
7
口口口口 |①---|
④③②① |②---|
口口口口 |③---|
口口口口 |④---|
8
口口口口 |①---|
口口口口 |②---|
④③②① |③---|
口口口口 |④---|
9
口口口口 |①---|
口口口口 |②---|
口口口口 |③---|
④③②① |④---|
10
口口口口 |①---|
口②①口 |----|
口口口口 |②---|
口口口口 |----|
11
口口口口 |①---|
①口口① |②---|
②口口② |③---|
③④④③ |④---|
12
口口口口 |①---|
口①②口 |----|
口口口口 |②---|
口口口口 |----|
13
③④④③ |①---|
②口口② |②---|
①口口① |③---|
口口口口 |④---|
14
口口口口 |①---|
口口口口 |----|
口②①口 |②---|
口口口口 |----|
15
①口口① |①---|
②口口② |②---|
③口口③ |③---|
④口口④ |④---|
16
口口口口 |①---|
口口口口 |----|
口①②口 |②---|
口口口口 |----|
17
④口口④ |①---|
③口口③ |②---|
②口口② |③---|
①口口① |④---|
18
口口口口 |①---|
口口口口 |②---|
口口口口 |③---|
④③②① |④---|
19
口口口口 |①---|
口口口口 |②---|
④③②① |③---|
口口口口 |④---|
20
口口口口 |①---|
④③②① |②---|
口口口口 |③---|
口口口口 |④---|
21
④③②① |①---|
口口口口 |②---|
口口口口 |③---|
口口口口 |④---|
22
口口口口 |①---|
口口②口 |----|
口①口口 |②---|
口口口口 |----|
23
④口口④ |①---|
口③③口 |②---|
②口口② |③---|
口①①口 |④---|
24
口口口口 |①---|
口②口口 |----|
口口①口 |②---|
口口口口 |----|
25
口④④口 |①---|
③口口③ |②---|
口②②口 |③---|
①口口① |④---|
26
口口口口 |①---|
口口①口 |----|
口②口口 |②---|
口口口口 |----|
27
④口口④ |①---|
口③③口 |②---|
②口口② |③---|
口①①口 |④---|
28
口口口口 |①---|
口口②口 |----|
口①口口 |②---|
口口口口 |----|
29
口④④口 |①---|
③口口③ |②---|
口②②口 |③---|
①口口① |④---|
30
口口口口 |①---|
口口口口 |----|
口口②② |②---|
口口①① |----|
31
②②口口 |①---|
①①口口 |----|
口口口口 |②---|
口口口口 |----|
32
口口口口 |①---|
口口口口 |----|
②②口口 |②---|
①①口口 |----|
33
口口②② |①---|
口口①① |----|
口口口口 |②---|
口口口口 |----|
34
口口口口 |①---|
口口口口 |----|
口口②① |②---|
口口②① |----|
35
②①口口 |①---|
②①口口 |----|
口口口口 |②---|
口口口口 |----|
36
口口口口 |①---|
口②②口 |----|
口①①口 |②---|
口口口口 |----|
37
口口口口 |①---|
①口口① |②---|
②口口② |③---|
口③③口 |----|
38
口③②口 |①---|
④口口① |②---|
口口口口 |③---|
口口口口 |④---|
39
口口口口 |①---|
口口口口 |②---|
④口口① |③---|
口③②口 |④---|
40
④口口① |①---|
口③②口 |②---|
口口口口 |③---|
口口口口 |④---|
41
口口口口 |①---|
口口口口 |②---|
口③②口 |③---|
口口口① |----|
42
④③②① |①---|
口口口口 |②---|
口口口口 |③---|
口口口口 |④---|
43
口口口口 |①---|
口口口口 |②---|
口口口口 |③---|
④③②① |④---|
44
口口口口 |①---|
④口②口 |②---|
口③口① |③---|
口口口口 |④---|
45
口口口口 |①---|
口③口① |②---|
口口②口 |③---|
口口口口 |----|
46
口③②口 |①---|
④口口① |②---|
口口口口 |③---|
口口口口 |④---|
47
口口口口 |①---|
口口口口 |②---|
①口口④ |③---|
口②③口 |④---|
48
①口口④ |①---|
口②③口 |②---|
口口口口 |③---|
口口口口 |④---|
49
口口口口 |①---|
口口口口 |②---|
口②③口 |③---|
①口口口 |----|
50
①②③④ |①---|
口口口口 |②---|
口口口口 |③---|
口口口口 |④---|
51
口口口口 |①---|
口口口口 |②---|
口口口口 |③---|
①②③④ |④---|
52
口③③口 |①---|
口①①口 |----|
口②②口 |②---|
口口口口 |--③-|
53
口口口③ |----|
口口口口 |①---|
①口口① |②---|
②口口② |③---|
54
①②③④ |①---|
口口口口 |②---|
口口口口 |③---|
口口口口 |④---|
55
口口口口 |①---|
①②③④ |②---|
口口口口 |③---|
口口口口 |④---|
56
口口口口 |①---|
口口口口 |②---|
①②③④ |③---|
口口口口 |④---|
57
口口口口 |①---|
口口口口 |②---|
口口口口 |③---|
①②③④ |④---|
58
口口口口 |①---|
口口口口 |②---|
口口口口 |③---|
①②③④ |④---|
59
口口口口 |①---|
口口口口 |②---|
①②③④ |③---|
口口口口 |④---|
60
口口口口 |①---|
①②③④ |②---|
口口口口 |③---|
口口口口 |④---|
61
①②③④ |①---|
口口口口 |②---|
口口口口 |③---|
口口口口 |④---|
62
口口④口 |①---|
①①口③ |②---|
②②口口 |③---|
口口口口 |④---|
63
口①口口 |①---|
②口口口 |②---|
③口口口 |③---|
口④口口 |④---|
64
口口口口 |①---|
口④口口 |②---|
口②③口 |③---|
口口①口 |④---|
65
②②③③ |①---|
口口①口 |②---|
口口口口 |③---|
口口口口 |----|
66
口④口口 |①---|
③口①① |②---|
口口②② |③---|
口口口口 |④---|
67
口口①口 |①---|
口口口② |②---|
口口口③ |③---|
口口④口 |④---|
68
口口口口 |①---|
口口④口 |②---|
口③②口 |③---|
口①口口 |④---|
69
③③②② |①---|
口①口口 |②---|
口口口口 |③---|
口口口口 |----|
70
口口口口 |①---|
④③②① |②---|
口口口口 |③---|
口口口口 |④---|
71
口口口口 |①---|
口口口口 |②---|
④③②① |③---|
口口口口 |④---|
72
口口口④ |①---|
口口口③ |②---|
口口口② |③---|
口口口① |④---|
73
口口口口 |①---|
①口①口 |②---|
②口②口 |③---|
③口③口 |----|
74
口口口口 |①---|
①②③④ |②---|
口口口口 |③---|
口口口口 |④---|
75
口口口口 |①---|
口口口口 |②---|
①②③④ |③---|
口口口口 |④---|
76
①①②② |①---|
口口口口 |----|
口口口口 |②---|
口口口口 |----|
77
口口口④ |①---|
③③口口 |②---|
口口②② |③---|
①①口口 |④---|
78
口口口口 |①---|
口口口口 |②---|
口口口口 |③---|
④③②① |④---|
79
口口口口 |①---|
口口口口 |②---|
④③②① |③---|
口口口口 |④---|
80
口口口口 |①---|
④③②① |②---|
口口口口 |③---|
口口口口 |④---|
81
④③②① |①---|
口口口口 |②---|
口口口口 |③---|
口口口口 |④---|
82
④③②① |①---|
口口口口 |②---|
口口口口 |③---|
口口口口 |④---|
83
口口口口 |①---|
④③②① |②---|
口口口口 |③---|
口口口口 |④---|
84
口口口口 |①---|
口口口口 |②---|
④③②① |③---|
口口口口 |④---|
85
口口口口 |①---|
口口口口 |②---|
口口口口 |③---|
④③②① |④---|

不確定度: 0

最終更新:2014年12月11日 23:23