十面相
YM feat. GUMI

BASIC

Level: 4
BPM: 173
Notes: 286

1
口口口口 |----|
口口口口 |----|
口口口口 |----|
口口口口 |----|
2
口①口口 |①---|
口②口口 |②---|
口③口口 |③---|
口④④口 |④---|
3
口口①口 |①---|
口口②口 |②---|
口口③口 |③---|
口④④口 |④---|
4
①口口口 |①---|
②口口口 |②---|
③口口口 |③---|
口④④口 |④---|
5
口口口① |①---|
口口口② |②---|
口口口③ |③---|
口口口口 |----|
6
口口口口 |①---|
①③口口 |②---|
②④口口 |③---|
口口口口 |④---|
7
口口口口 |①---|
口口①③ |②---|
口口②④ |③---|
口口口口 |④---|
8
口口口口 |①---|
口口口口 |----|
口②②口 |②---|
口①①口 |----|
9
口②②口 |①---|
口①①口 |----|
口口口口 |②---|
口口口口 |----|
10
口口口口 |①---|
口口③① |②---|
口口④② |③---|
口口口口 |④---|
11
口口口口 |①---|
③①口口 |②---|
④②口口 |③---|
口口口口 |④---|
12
口口口口 |①---|
口口口口 |----|
口②②口 |②---|
口①①口 |----|
13
口②②口 |①---|
口①①口 |----|
口口口口 |②---|
口口口口 |----|
14
口口口口 |①---|
①②口口 |----|
口口口口 |②---|
口口口口 |----|
15
口口①口 |①---|
口口②口 |②---|
口口③口 |③---|
口口④口 |④---|
16
口口口口 |①---|
口口②① |----|
口口口口 |②---|
口口口口 |----|
17
口①口口 |①---|
口②口口 |②---|
口③口口 |③---|
口④口口 |④---|
18
口口口口 |①---|
口口口口 |----|
口口②① |②---|
口口口口 |----|
19
口④口口 |①---|
口③口口 |②---|
口②口口 |③---|
口①口口 |④---|
20
口口口口 |①---|
口口口口 |----|
①②口口 |②---|
口口口口 |----|
21
口口④口 |①---|
口口③口 |②---|
口口②口 |③---|
口口①口 |④---|
22
口口口口 |①---|
口②②口 |----|
口①①口 |②---|
口口口口 |----|
23
④③②① |①---|
口口口口 |②---|
口口口口 |③---|
口口口口 |④---|
24
口口口口 |①---|
口①①口 |----|
口②②口 |②---|
口口口口 |----|
25
口口口口 |①---|
口口口口 |②---|
口口口口 |③---|
①②③④ |④---|
26
口口口口 |①---|
口②②口 |----|
口①①口 |②---|
口口口口 |----|
27
④③②① |①---|
口口口口 |②---|
口口口口 |③---|
口口口口 |④---|
28
口口口口 |①---|
口①①口 |----|
口②②口 |②---|
口口口口 |----|
29
口口口口 |①---|
口口口口 |②---|
口口口口 |③---|
①②③④ |④---|
30
口口口口 |①---|
口①①口 |----|
口②②口 |②---|
口口口口 |----|
31
口口口口 |①---|
口口①口 |②---|
口②口口 |③---|
口口③口 |----|
32
口口口口 |①---|
口②②口 |----|
口①①口 |②---|
口口口口 |----|
33
口口口口 |①---|
②口口② |----|
①口口① |②---|
口口口口 |----|
34
口口口口 |①---|
口①①口 |----|
口②②口 |②---|
口口口口 |----|
35
口口口口 |①---|
口口①口 |②---|
口②口口 |③---|
口口③口 |----|
36
口口口口 |①---|
口②②口 |----|
口①①口 |②---|
口口口口 |----|
37
口口口口 |①---|
②口口② |----|
①口口① |②---|
口口口口 |----|
38
口口口口 |①---|
口④③口 |②---|
口②①口 |③---|
口口口口 |④---|
39
③口口③ |①---|
②口口② |②---|
①口口① |③---|
口口口口 |----|
40
口口口口 |①---|
口①②口 |②---|
口③④口 |③---|
口口口口 |④---|
41
口口口口 |①---|
①口口① |②---|
②口口② |③---|
③口口③ |----|
42
口口口口 |①---|
口④③口 |②---|
口②①口 |③---|
口口口口 |④---|
43
③口口③ |①---|
②口口② |②---|
①口口① |③---|
口口口口 |----|
44
口口口口 |①---|
口①②口 |②---|
口③④口 |③---|
口口口口 |④---|
45
口口口口 |①---|
①口口① |②---|
②口口② |③---|
③④④③ |④---|
46
口口③④ |①---|
口口②口 |②---|
口口①口 |③---|
口口口口 |④---|
47
口口口口 |①---|
④③②① |②---|
口口口口 |③---|
口口口口 |④---|
48
口口口口 |①---|
口口④口 |②---|
①②③口 |③---|
口口口口 |④---|
49
口②③④ |①---|
口①口口 |②---|
口口口口 |③---|
口口口口 |④---|
50
口口口口 |①---|
口口②① |②---|
口④③口 |③---|
口口口口 |④---|
51
口口口口 |①---|
口口口口 |②---|
③④口口 |③---|
②①口口 |④---|
52
口口口口 |①---|
④③②口 |②---|
口口①口 |③---|
口口口口 |④---|
53
①②③④ |①---|
口口口口 |②---|
口口口口 |③---|
口口口口 |④---|
54
口口口口 |①---|
③①①③ |②---|
④②②④ |③---|
口口口口 |④---|
55
口口口口 |①---|
④②①③ |②---|
④②①③ |③---|
口口口口 |④---|
56
③口口③ |①---|
口②②口 |②---|
口①①口 |③---|
口口口口 |----|
57
口口口口 |①---|
口①①口 |②---|
口②②口 |③---|
③口口③ |----|
58
口口口口 |①---|
口口②口 |----|
口口①口 |②---|
口口口口 |----|
59
口②①口 |①---|
口口口口 |----|
口口口口 |②---|
口口口口 |----|
60
口口口口 |①---|
口①口口 |----|
口②口口 |②---|
口口口口 |----|
61
口口口口 |①---|
口口口口 |----|
口②②口 |②---|
口①①口 |----|
62
口口口口 |①---|
①③口口 |②---|
②④口口 |③---|
口口口口 |④---|
63
口口口口 |①---|
口口①③ |②---|
口口②④ |③---|
口口口口 |④---|
64
口口口口 |①---|
口口口口 |----|
口②②口 |②---|
口①①口 |----|
65
口②②口 |①---|
口①①口 |----|
口口口口 |②---|
口口口口 |----|
66
口口口口 |①---|
口口③① |②---|
口口④② |③---|
口口口口 |④---|
67
口口口口 |①---|
③①口口 |②---|
④②口口 |③---|
口口口口 |④---|
68
口口口口 |①---|
口口口口 |----|
口②②口 |②---|
口①①口 |----|
69
口②②口 |①---|
口①①口 |----|
口口口口 |②---|
口口口口 |----|
70
①口口① |①---|
口口口口 |----|
口口口口 |----|
口口口口 |----|
71
口口口口 |----|
口口口口 |----|
口口口口 |----|
口口口口 |----|
72
口口口口 |①---|
口①①口 |----|
口①①口 |----|
口口口口 |----|

不確定度: 0

最終更新:2014年12月11日 23:21