十面相
YM feat. GUMI

ADVANCED

Level: 8
BPM: 173
Notes: 582

1
口口口口 |----|
口口口口 |----|
口口口口 |----|
口口口口 |----|
2
⑤③①⑦ |①-②-|
口⑥④② |③-④-|
口口口口 |⑤-⑥-|
口口口口 |⑦---|
3
口口口口 |①-②-|
口口口口 |③-④-|
⑦①③⑤ |⑤-⑥-|
②④⑥口 |⑦---|
4
⑤③①⑦ |①-②-|
口⑥④② |③-④-|
口口口口 |⑤-⑥-|
口口口口 |⑦---|
5
口口口口 |①-②-|
⑥⑧⑦⑤ |③-④-|
口①③口 |⑤-⑥-|
②④口口 |⑦-⑧-|
6
⑦口口③ |①-②-|
⑧口口④ |③-④-|
口口口口 |⑤-⑥-|
⑥⑤①② |⑦-⑧-|
7
⑦口口⑥ |①-②-|
口②①口 |③-④-|
⑧④③⑤ |⑤-⑥-|
口口口口 |⑦-⑧-|
8
口口口口 |①---|
口④③② |--②③|
⑤⑥口口 |④---|
口①①口 |--⑤⑥|
9
口口口口 |①---|
口口口口 |--②-|
口口①口
②口口②

口④③口
口⑥⑤口
口口⑦口 |③④⑤⑥|
口口口口 |⑦---|
10
⑦口口③ |①-②-|
⑧口口④ |③-④-|
口口口口 |⑤-⑥-|
⑥⑤①② |⑦-⑧-|
11
⑦口口⑥ |①-②-|
口②①口 |③-④-|
⑧④③⑤ |⑤-⑥-|
口口口口 |⑦-⑧-|
12
口口口口 |①---|
口口③② |--②③|
口口口口
口①①口

口口口口
口④口口
口⑥⑤口 |④-⑤-|
口口⑦口 |⑥-⑦-|
13
口②②口 |①---|
口③③口 |----|
④口口④ |②-③-|
口①口口 |④---|
14
②口口① |①---|
②口口① |②---|
口③③口 |③---|
④口口口 |--④-|
15
口口⑦⑥ |①-②-|
④⑤口口 |③-④-|
口口③② |⑤-⑥-|
口①口口 |⑦---|
16
口口口口 |①---|
口口口口 |②---|
①口口②
①口口②

口口口口
口③③口
④口口口 |③---|
口口口口 |--④-|
17
口口口口 |①-②-|
④口口⑥ |③-④-|
口⑤⑦② |⑤-⑥-|
口①③口 |⑦---|
18
②②①① |①---|
口口③口 |②---|
口③口口 |③---|
口口口④ |--④-|
19
口口口口 |①-②-|
③口⑧② |③-④-|
④⑦口① |⑤-⑥-|
⑤口⑥口 |⑦-⑧-|
20
①①②② |①---|
口③口口 |②---|
口口③口 |③---|
口口口口 |----|
21
口口口口 |①-②-|
③⑤⑤② |③-④-|
④⑥⑥① |⑤---|
口口口口 |⑥---|
22
⑤②①口 |①---|
②④③① |②---|
口口⑥口 |③④-⑤|
口口口口 |--⑥-|
23
口口口口 |①-②-|
⑧⑦⑥⑤ |③-④-|
口口口口 |⑤-⑥-|
①②③④ |⑦-⑧-|
24
⑥②①口 |①---|
口⑤④③ |②--③|
口②①口 |④⑤-⑥|
⑦口口口 |--⑦-|
25
口口⑦口 |①-②-|
口⑥⑤口 |③-④-|
口②①口 |⑤-⑥-|
口④③口 |⑦---|
26
⑦口口⑥ |①---|
③④⑤口 |②--③|
口①②口 |④⑤-⑥|
①口口② |--⑦-|
27
口⑦⑧口 |①-②-|
⑥口口① |③-④-|
⑤口口② |⑤-⑥-|
口④③口 |⑦-⑧-|
28
①口口② |①---|
口①②口 |②---|
口口口口
口口口口

口口口口
③⑥口口
口口口口 |③-④-|
④⑤口口 |⑤-⑥-|
29
口口口口 |①-②-|
口口①④ |③-④-|
⑦⑤⑥⑧ |⑤-⑥-|
口口②③ |⑦-⑧-|
30
④①①⑤ |①---|
④口口⑤ |②-③-|
口②③口 |④---|
口口口口 |⑤---|
31
⑤口口⑤ |①-②-|
口②①口 |③---|
④口口③ |④---|
④口口③ |⑤---|
32
口口②口 |①---|
口口口② |②---|
②①①口
口②口口

④③口口
③口④口
口④口③ |③---|
口口③④ |④---|
33
口②②① |①---|
②①口② |②---|
口口①口
①口口口

④口口④
口口口口
③④④③ |③---|
口③③口 |④---|
34
口⑤④口 |①---|
⑤①①④ |②-③-|
口口口口 |④---|
①③②① |⑤---|
35
口口口口 |①-②-|
口③④口 |③-④-|
口①②口 |⑤---|
⑤口口⑤ |----|
36
口口口口 |①---|
口③⑦⑤ |②-③-|
②口④⑥ |④-⑤-|
口①①口 |⑥-⑦-|
37
口④③口 |①-②-|
②口口口 |③-④-|
口①口口
口口口口

口口口口
口口⑦口
⑤⑥口⑤ |⑤---|
口口口口 |⑥-⑦-|
38
口口④口 |①---|
口口口④ |②---|
②⑤③② |③-④-|
①①①① |--⑤-|
39
口①③③ |①---|
①口口③ |②---|
④口口⑤ |③---|
口②②口 |④-⑤-|
40
口②②口 |①---|
④口口③ |②---|
口④③口 |③---|
⑤①①⑤ |④-⑤-|
41
口②口口 |①-②-|
⑥口④口 |③-④-|
⑥口⑥⑤ |⑤---|
口①③口 |⑥---|
42
口口口① |①---|
口①口① |②---|
口②口②
口口口②

③口③口
③④口口
口口口口 |③---|
口口口口 |--④-|
43
④口③③ |①---|
口口口③ |②---|
②口①口 |③---|
口②口④ |④---|
44
口口口② |①---|
口①口口 |②---|
口口①口
②口口口

口口口口
口④口③
③口④口 |③---|
口口口口 |④---|
45
口口口① |①---|
②口①② |②---|
②①口②
①口口口

③口④④
口③口口
口口③口 |③---|
④④口③ |④---|
46
口①口口 |①---|
口口①口 |----|
口①口口
口口①口

口口③口
口口口③
口④②口 |②-③-|
口口口口 |--④-|
47
③①③口 |①---|
①口口口 |②---|
口④⑤④ |③---|
②口口② |④-⑤-|
48
口②②口 |①---|
⑥③④口 |②--③|
口口口口 |④---|
口①口⑤ |⑤-⑥-|
49
口口①⑥ |①-②-|
口③⑥口 |③-④-|
⑤⑥口口 |⑤---|
口④②口 |⑥---|
50
①口②口 |①---|
口①口② |②---|
口口①口
②口口口

⑤③口口
③口④口
口口口口 |③-④-|
口口口③ |--⑤-|
51
口口口口 |①---|
口口口口 |②---|
口①①口
口②②口

口③③口
③口口③
④④④④ |③---|
口口口口 |④---|
52
③②②③ |①---|
②①①② |②---|
③④④③ |③---|
①④④① |④---|
53
口口口口 |①-②-|
④⑧⑥② |③-④-|
口口口口 |⑤-⑥-|
③⑦⑤① |⑦-⑧-|
54
口口①① |①-②-|
②⑧⑤⑤ |③-④-|
口⑥③③ |⑤-⑥-|
④口⑦⑦ |⑦-⑧-|
55
④⑥①① |①-②-|
口口⑤⑤ |③-④-|
②⑧③③ |⑤-⑥-|
口口⑦⑦ |⑦-⑧-|
56
口口②① |①---|
③口口④ |②---|
口口②① |③-④-|
④口口③ |----|
57
①②口口 |①---|
③口口④ |②---|
①②口口 |③-④-|
④口口③ |----|
58
口①①口 |①---|
口②②口 |----|
口口口口 |②---|
口口口口 |----|
59
口口口口 |①---|
口口口口 |----|
③①①③ |②---|
②口口② |③---|
60
口②②口 |①---|
①口③① |----|
口口口口 |②---|
口口口口 |--③-|
61
②②②② |①---|
口口口口 |----|
口①口口 |②---|
口口口口 |----|
62
⑦口口③ |①-②-|
⑧口口④ |③-④-|
口口口口 |⑤-⑥-|
⑥⑤①② |⑦-⑧-|
63
⑦口口⑥ |①-②-|
口②①口 |③-④-|
⑧④③⑤ |⑤-⑥-|
口口口口 |⑦-⑧-|
64
口口口口 |①---|
口④③② |--②③|
⑤⑥口口 |④---|
口①①口 |--⑤⑥|
65
口口口口 |①---|
口口口口 |--②-|
口口①口
②口口②

口④③口
口⑥⑤口
口口⑦口 |③④⑤⑥|
口口口口 |⑦---|
66
⑦口口③ |①-②-|
⑧口口④ |③-④-|
口口口口 |⑤-⑥-|
⑥⑤①② |⑦-⑧-|
67
⑦口口⑥ |①-②-|
口②①口 |③-④-|
⑧④③⑤ |⑤-⑥-|
口口口口 |⑦-⑧-|
68
口口口口 |①---|
口④③② |--②③|
口⑤⑤口 |④---|
口①①口 |--⑤-|
69
口口口口 |①---|
口口口口 |--②-|
口口口口
②①①②

口④③口
口⑥⑤口
口⑧⑦口 |③④⑤⑥|
口⑩⑨口 |⑦⑧⑨⑩|
70
口口口① |①---|
口口口口 |----|
口口口口 |----|
口口口口 |----|
71
口口口口 |----|
口口口口 |----|
口②口口 |----|
口口①口 |①-②-|
72
①①①① |①---|
口口口口 |----|
口口口口 |----|
口口口口 |----|

不確定度: 0

最終更新:2014年12月11日 23:20