Blue Goose
Mutsuhiko Izumi

ADVANCED

Level: 8
BPM: 200
Notes: 631

1
口口口口 |----|
口口口口 |----|
口口口口 |----|
口口口口 |----|
2
口口④③ |①-②-|
⑤⑥口口 |③-④-|
口口口口 |⑤-⑥-|
①②⑧⑦ |⑦-⑧-|
3
⑤⑥口口 |①-②-|
口口④③ |③-④-|
①②⑧⑦ |⑤-⑥-|
口口口口 |⑦-⑧-|
4
口口口口 |①-②-|
⑤⑥⑦⑧ |③-④-|
口口口口 |⑤-⑥-|
①②③④ |⑦-⑧-|
5
⑤⑥⑦⑧ |①-②-|
口口口口 |③-④-|
①②③④ |⑤-⑥-|
口口口口 |⑦-⑧-|
6
口口口口 |①-②-|
④③②① |③-④-|
口口口口 |⑤-⑥-|
⑧⑦⑥⑤ |⑦-⑧-|
7
④③②① |①-②-|
口口口口 |③-④-|
⑧⑦⑥⑤ |⑤-⑥-|
口口口口 |⑦-⑧-|
8
口③口① |①-②-|
④口②口 |③-④-|
口⑦口⑤ |⑤-⑥-|
⑧口⑥口 |⑦-⑧-|
9
③口口口 |①---|
口①口② |--②-|
②口①口 |----|
口口口③ |③---|
10
口口口③ |①---|
②口①口 |--②-|
口①口② |----|
③口口口 |③---|
11
①②③口 |①-②-|
口口口④ |③-④-|
口口口口 |--⑤-|
口⑤⑥⑦ |⑥-⑦-|
12
口口口口 |①-②-|
④口口口 |③-④-|
口③②① |--⑤-|
⑤⑥⑦口 |⑥-⑦-|
13
口③②① |①-②-|
④口口口 |③-④-|
口⑦⑥⑤ |--⑤-|
口口口口 |⑥-⑦-|
14
①②③口 |①-②-|
口口口④ |③-④-|
⑦⑥⑤口 |--⑤-|
口口口口 |⑥-⑦-|
15
口⑦⑥⑤ |①-②-|
④口口口 |③-④-|
口口口口 |--⑤-|
口③②① |⑥-⑦-|
16
口口口口 |①-②-|
口口口④ |③-④-|
①②③口 |--⑤-|
口⑦⑥⑤ |⑥-⑦-|
17
⑤①①⑤ |①--②|
③口口③ |--③---|
口②②口 |④---⑤-|
④⑥⑥④ |--⑥---|
18
口①①口 |①---|
口口口口 |②-③-|
口②③口 |----|
口口口口 |----|
19
①②③口 |①-②-|
口口口④ |③-④-|
口口口口 |--⑤-|
口⑤⑥⑦ |⑥-⑦-|
20
口口口口 |①-②-|
④口口口 |③-④-|
口③②① |--⑤-|
⑤⑥⑦口 |⑥-⑦-|
21
口③②① |①-②-|
④口口口 |③-④-|
口⑦⑥⑤ |--⑤-|
口口口口 |⑥-⑦-|
22
①②③口 |①-②-|
口口口④ |③-④-|
⑦⑥⑤口 |--⑤-|
口口口口 |⑥-⑦-|
23
口⑦⑥⑤ |①-②-|
④口口口 |③-④-|
口口口口 |--⑤-|
口③②① |⑥-⑦-|
24
口口口口 |①-②-|
口口口④ |③-④-|
①②③口 |--⑤-|
口⑦⑥⑤ |⑥-⑦-|
25
⑤①①⑤ |①--②|
③口口③ |--③---|
口②②口 |④---⑤-|
④⑥⑥④ |--⑥---|
26
④①①口 |①---|
口⑤⑥口 |②-③-|
口②③口 |--④-|
口口口口 |⑤-⑥-|
27
口⑦⑧① |①-②-|
⑥口口口 |③-④-|
口③④口 |⑤-⑥-|
②口口⑤ |⑦-⑧-|
28
⑥口⑧口 |①-②-|
口⑦口① |③-④-|
②口口⑤ |⑤-⑥-|
口③④口 |⑦-⑧-|
29
口口口口 |①-②-|
口⑦口① |③-④-|
⑥③⑧⑤ |⑤-⑥-|
②口④口 |⑦-⑧-|
30
③①①口 |①---|
口④⑤口 |--②-|
口口口口 |--③-|
②口口② |④-⑤-|
31
口⑦⑧① |①-②-|
⑥口口口 |③-④-|
②口口⑤ |⑤-⑥-|
口③④口 |⑦-⑧-|
32
⑥口⑧口 |①-②-|
口⑦口① |③-④-|
口③④口 |⑤-⑥-|
②口口⑤ |⑦-⑧-|
33
口口口口 |①-②-|
口口⑧① |③-④-|
②⑦④口 |⑤-⑥-|
⑥③口⑤ |⑦-⑧-|
34
口①①口 |①---|
口口口口 |--②-|
口口口口 |----|
口②②口 |----|
35
①口口① |①---|
口②②口 |--②-|
口①①口 |----|
②口口② |----|
36
⑤口口④ |①-②-|
⑨⑧⑦⑥ |③-④-|
①②③口 |--⑤-|
口口口口 |⑥⑦⑧⑨|
37
口口口口 |①---|
口口口口 |----|
口④⑤口 |②-③-|
口②③① |④-⑤-|
38
①②③口 |①-②-|
⑨⑧⑦⑥ |③-④-|
口口口④ |--⑤-|
⑤口口口 |⑥⑦⑧⑨|
39
口口口① |①---|
口口口口 |--②-|
③④⑤⑥ |----|
口②②口 |③④⑤⑥|
40
①口口口 |①---|
⑥⑤④③ |--②-|
口口口口 |----|
口②②口 |③④⑤⑥|
41
口口口① |①---|
口口口口 |--②-|
口②②口 |----|
③④⑤⑥ |③④⑤⑥|
42
①口口④ |①---|
口口口口 |②---|
②口口③ |③---|
口口口口 |④---|
43
口③③口 |①---|
口①①口 |②---|
口口口口 |③---|
④②②④ |④---|
44
①口口口 |①-②-|
③②口口 |③-④-|
⑤④口口 |⑤-⑥-|
⑦⑥口口 |⑦---|
45
口口口① |①-②-|
口口②③ |③-④-|
口口④⑤ |⑤-⑥-|
口口⑥⑦ |⑦---|
46
口①口口 |①-②-|
②③口口 |③-④-|
④⑤口口 |⑤-⑥-|
⑥⑦口口 |⑦---|
47
口口①口 |①-②-|
口口③② |③-④-|
口口⑤④ |⑤-⑥-|
口口⑦⑥ |⑦---|
48
⑦⑧口口 |①-②-|
⑤⑥口口 |③-④-|
③④口口 |⑤-⑥-|
①②口口 |⑦-⑧-|
49
口口⑦⑧ |①-②-|
口口⑤⑥ |③-④-|
口口③④ |⑤-⑥-|
口口①② |⑦-⑧-|
50
口⑦⑧口 |①-②-|
口⑤⑥口 |③-④-|
口③④口 |⑤-⑥-|
口①②口 |⑦-⑧-|
51
①口口② |①-②-|
③口口④ |③-④-|
⑤口口⑥ |⑤-⑥-|
⑦口口⑧ |⑦-⑧-|
52
口口口口 |①---|
口①①口 |----|
②③④口 |--②-|
口口口口 |③-④-|
53
口口口③ |①---|
口口口口 |--②-|
口口口① |----|
口②②口 |③---|
54
口口口口 |①---|
口①口口 |----|
口①口口 |--②-|
口④③② |③-④-|
55
口口口口 |①---|
口③口口 |②-③-|
口口②口 |----|
①口口口 |----|
56
口口口口 |①---|
①口口① |----|
口口口口 |--②-|
②③④口 |③-④-|
57
口②②口 |①---|
口口口口 |--②-|
口口口口 |----|
口口口① |----|
58
口口口口 |①---|
口口④口 |----|
口③口口 |--②-|
②①①口 |③-④-|
59
口口口① |①---|
口④口口 |----|
口口③口 |--②-|
口口口② |③-④-|
60
①口口口 |①---|
口口口口 |----|
口口口口 |----|
口口口口 |----|
61
口口口① |①---|
口口口② |②---|
口口口③ |③---|
口口口④ |④---|
62
①口口口 |①---|
②口口口 |②---|
③口口口 |③---|
④口口口 |④---|
63
口口①口 |①---|
口②口口 |②---|
口口③口 |③---|
口④口口 |④---|
64
口①口口 |①---|
口口②口 |②---|
口③口口 |③---|
口口④口 |④---|
65
①口口口 |①---|
口②口口 |②---|
口口③口 |③---|
口口口④ |④---|
66
口口口① |①---|
口口②口 |②---|
口③口口 |③---|
④口口口 |④---|
67
④口口口 |①---|
口口口③ |②---|
②口口口 |③---|
口口①口 |④---|
68
③口口口 |①---|
口①口② |--②-|
②口①口 |----|
口口口③ |③---|
69
口口口③ |①---|
②口①口 |--②-|
口①口② |----|
③口口口 |③---|
70
口口口口 |①---|
口①①口 |----|
口①①口 |----|
口口口口 |----|
71
口口口口 |①---|
①口口① |----|
①口口① |----|
口口口口 |----|
72
口口口口 |①---|
①口口① |----|
口口口口 |----|
①口口① |----|
73
口①①口 |①---|
口口口口 |----|
口口口口 |----|
口①①口 |----|
74
口口口口 |①---|
口①①口 |----|
口①①口 |----|
口口口口 |----|
75
口口口口 |①---|
①口口① |----|
①口口① |----|
口口口口 |----|
76
⑤①①⑤ |①--②|
③口口③ |--③---|
口②②口 |④---⑤-|
④⑥⑥④ |--⑥---|
77
口①①口 |①---|
口口口口 |②-③-|
口②③口 |----|
口口口口 |----|
78
①②③口 |①-②-|
口口口④ |③-④-|
口口口口 |--⑤-|
口⑤⑥⑦ |⑥-⑦-|
79
口口口口 |①-②-|
④口口口 |③-④-|
口③②① |--⑤-|
⑤⑥⑦口 |⑥-⑦-|
80
口③②① |①-②-|
④口口口 |③-④-|
口⑦⑥⑤ |--⑤-|
口口口口 |⑥-⑦-|
81
①②③口 |①-②-|
口口口④ |③-④-|
⑦⑥⑤口 |--⑤-|
口口口口 |⑥-⑦-|
82
口⑦⑥⑤ |①-②-|
④口口口 |③-④-|
口口口口 |--⑤-|
口③②① |⑥-⑦-|
83
口口口口 |①-②-|
口口口④ |③-④-|
①②③口 |--⑤-|
口⑦⑥⑤ |⑥-⑦-|
84
⑤①①⑤ |①--②|
③口口③ |--③---|
口②②口 |④---⑤-|
④⑥⑥④ |--⑥---|
85
④①①口 |①---|
口⑤⑥口 |②-③-|
口②③口 |--④-|
口口口口 |⑤-⑥-|
86
口⑦⑧① |①-②-|
⑥口口口 |③-④-|
口③④口 |⑤-⑥-|
②口口⑤ |⑦-⑧-|
87
⑥口⑧口 |①-②-|
口⑦口① |③-④-|
②口口⑤ |⑤-⑥-|
口③④口 |⑦-⑧-|
88
口口口口 |①-②-|
口⑦口① |③-④-|
⑥③⑧⑤ |⑤-⑥-|
②口④口 |⑦-⑧-|
89
③①①口 |①---|
口④⑤口 |--②-|
口口口口 |--③-|
②口口② |④-⑤-|
90
口⑦⑧① |①-②-|
⑥口口口 |③-④-|
②口口⑤ |⑤-⑥-|
口③④口 |⑦-⑧-|
91
⑥口⑧口 |①-②-|
口⑦口① |③-④-|
口③④口 |⑤-⑥-|
②口口⑤ |⑦-⑧-|
92
口口口口 |①-②-|
口口⑧① |③-④-|
②⑦④口 |⑤-⑥-|
⑥③口⑤ |⑦-⑧-|
93
口①①口 |①---|
口口口口 |--②-|
口口口口 |----|
口②②口 |----|
94
①口口① |①---|
口②②口 |--②-|
口①①口 |----|
②口口② |----|
95
口①①口 |①---|
②口口② |--②-|
②口口② |----|
口①①口 |----|
96
口口口口 |----|
口口口口 |----|
口口口口 |----|
口口口口 |----|
97
口口口② |----|
口口口口 |----|
口口口口 |----|
①口口口 |①-②-|
98
口口口口 |①---|
②①①③ |--②-|
②①①③ |③---|
口口口口 |----|

不確定度: 0

最終更新:2014年12月11日 23:19