STERLING SILVER
TAG

BASIC

Level: 5
BPM: 175
Notes: 370

1
口口口口 |----|
口口口口 |----|
口口口口 |----|
口口口口 |----|
2
①④口口 |①---|
③②口口 |②---|
口口口口 |③---|
口口口口 |④---|
3
口口④① |①---|
口口②③ |②---|
口口口口 |③---|
口口口口 |④---|
4
口口口口 |①---|
口口口口 |②---|
①④口口 |③---|
③②口口 |④---|
5
口口口口 |①---|
口口口口 |②---|
口口④① |③---|
口口②③ |④---|
6
①④口口 |①---|
③②口口 |②---|
口口口口 |③---|
口口口口 |④---|
7
口口④① |①---|
口口②③ |②---|
口口口口 |③---|
口口口口 |④---|
8
口口口口 |①---|
口口口口 |②---|
①④口口 |③---|
③②口口 |④---|
9
口口口口 |①---|
口口口口 |②---|
口口④① |③---|
口口②③ |④---|
10
口口口口 |①---|
口①①口 |----|
口口口口 |----|
口口口口 |----|
11
①①②② |①---|
口口口口 |----|
口口口口 |②---|
口口口口 |----|
12
口口口口 |①--②|
口①①口 |--③-|
④②②④ |④---|
口③③口 |----|
13
③③②② |①---|
口①①口 |----|
⑤⑤④④ |②-③-|
口口口口 |④-⑤-|
14
口口口口 |①--②|
④①①④ |--③-|
口⑤⑤口 |④---|
③②②③ |⑤---|
15
口口口① |①---|
口口④口 |②---|
口口口② |③---|
口口③口 |④---|
16
①口口口 |①---|
口④口口 |②---|
②口口口 |③---|
口③口口 |④---|
17
口①①口 |①---|
④口口④ |②---|
口②②口 |③---|
③口口③ |④---|
18
③口口③ |①---|
口②②口 |②---|
口口口口 |③---|
口①①口 |----|
19
口口口口 |①---|
口口口口 |②---|
口口④① |③---|
口口③② |④---|
20
口口口口 |①---|
口口①① |----|
口口口② |----|
口口口口 |②---|
21
口口口口 |①---|
口口口口 |②---|
①④口口 |③---|
②③口口 |④---|
22
口口口口 |①---|
①①口口 |----|
②口口口 |----|
口口口口 |②---|
23
口口口口 |①---|
口口④① |②---|
口口③② |③---|
口口口口 |④---|
24
口口①① |①---|
口口口② |----|
口口口口 |----|
口口口口 |②---|
25
口口口口 |①---|
①④口口 |②---|
②③口口 |③---|
口口口口 |④---|
26
①①口口 |①---|
口口②② |----|
口口口口 |②---|
口口口口 |----|
27
口口口口 |①---|
口口口口 |②---|
①④口口 |③---|
②③口口 |④---|
28
口口口口 |①---|
①①口口 |----|
②口口口 |----|
口口口口 |②---|
29
口口口口 |①---|
口口口口 |②---|
口口④① |③---|
口口③② |④---|
30
口口口口 |①---|
口口①① |----|
口口口② |----|
口口口口 |②---|
31
口口口口 |①---|
①④口口 |②---|
②③口口 |③---|
口口口口 |④---|
32
①①口口 |①---|
②口口口 |----|
口口口口 |----|
口口口口 |②---|
33
口口口口 |①---|
口口④① |②---|
口口③② |③---|
口口口口 |④---|
34
口口①① |①---|
②②口口 |----|
口口口口 |②---|
口口口口 |----|
35
口口口口 |①---|
口口口口 |②---|
口④②口 |③---|
口口③① |④---|
36
口口口口 |①---|
④口口口 |②---|
②口口口 |③---|
③①口口 |④---|
37
口①③口 |①---|
口②④口 |②---|
口口口口 |③---|
口口口口 |④---|
38
口口口① |①---|
口口口② |②---|
口口口③ |③---|
口口口口 |----|
39
口口口口 |①---|
口口口口 |②---|
②④口口 |③---|
①③口口 |④---|
40
口口口口 |①---|
口口口口 |②---|
口口②④ |③---|
口口①③ |④---|
41
口③①口 |①---|
口④②口 |②---|
口口口口 |③---|
口口口口 |④---|
42
①口口口 |①---|
②口口口 |②---|
口④口口 |③---|
口③口口 |④---|
43
口口口口 |①---|
口口①口 |----|
口口口口 |----|
口口口口 |----|
44
口口口口 |----|
口口口口 |----|
口口口口 |----|
口口口口 |----|
45
口口口① |①---|
口口②口 |②---|
口③口口 |③---|
④口口口 |④---|
46
口口口口 |①---|
口口口口 |②---|
口口口口 |③---|
口①②③ |----|
47
口口口口 |①---|
口②③口 |②---|
口口口口 |③---|
①口口口 |----|
48
口口口口 |①---|
口③口口 |②---|
口口②口 |③---|
口口口① |----|
49
口口③④ |①---|
口口口口 |②---|
①②口口 |③---|
口口口口 |④---|
50
④③口口 |①---|
口口口口 |②---|
口口②① |③---|
口口口口 |④---|
51
口口口口 |①---|
口口①口 |②---|
口②口口 |③---|
③口口口 |----|
52
口口口口 |①---|
口口口口 |----|
口口口口 |②---|
口②①口 |----|
53
口口口口 |①---|
口④口口 |②---|
③②口口 |③---|
①口口口 |④---|
54
③②口口 |①---|
①口口口 |②---|
口口口口 |③---|
口口口口 |----|
55
口②①① |①---|
口口口口 |②---|
口④③③ |③---|
口口口口 |④---|
56
口口口口 |①---|
③③④口 |②---|
口口口口 |③---|
①①②口 |④---|
57
口②①① |①---|
口口口口 |②---|
口④③③ |③---|
口口口口 |④---|
58
口口口口 |①---|
③③④口 |②---|
口口口口 |③---|
①①②口 |④---|
59
口②①① |①---|
口口口口 |②---|
口口口口 |③---|
③③④口 |④---|
60
口口口口 |①---|
③③④口 |②---|
口②①① |③---|
口口口口 |④---|
61
口口口① |①---|
口口口③ |②---|
④口口口 |③---|
②口口口 |④---|
62
④口口口 |①---|
②口口口 |②---|
口口口① |③---|
口口口③ |④---|
63
口③①口 |①---|
口口口口 |②---|
口口口口 |③---|
口②④口 |④---|
64
口口口口 |①---|
口③①口 |②---|
口②④口 |③---|
口口口口 |④---|
65
口口口口 |①---|
口口口口 |----|
①口口① |②---|
口②口口 |----|
66
口口口口 |①---|
口②②口 |----|
口口①口 |②---|
口口口口 |----|
67
①口④④ |①---|
口口口口 |②---|
口②③口 |③---|
口口口口 |④---|
68
口口口口 |①---|
口③②口 |②---|
口口口口 |③---|
④④口① |④---|
69
口口④④ |①---|
口口口口 |②---|
①②口口 |③---|
口口③口 |④---|
70
④④口口 |①---|
口口口口 |②---|
口口②① |③---|
口③口口 |④---|
71
口口口口 |①---|
口②③口 |②---|
口口口口 |③---|
①口④④ |④---|
72
④④口① |①---|
口口口口 |②---|
口③②口 |③---|
口口口口 |④---|
73
口口④④ |①---|
口②③口 |②---|
①口口口 |③---|
口口口口 |④---|
74
口口口口 |①---|
口口口① |②---|
口③②口 |③---|
④④口口 |④---|
75
③③口口 |①---|
①口②① |----|
①口口① |②---|
口口口口 |③---|
76
口口④④ |①---|
口口口口 |②---|
口②③口 |③---|
①口口口 |④---|
77
口口口口 |①---|
④④口① |②---|
口口口口 |③---|
口③②口 |④---|
78
口②③口 |①---|
口口口口 |②---|
①口④④ |③---|
口口口口 |④---|
79
④④口口 |①---|
口口③口 |②---|
口②口口 |③---|
①口口口 |④---|
80
口口④④ |①---|
口③口口 |②---|
口口②口 |③---|
口口口① |④---|
81
口口口口 |①---|
①口口① |②---|
③口口③ |③---|
口②④口 |④---|
82
口①①口 |①---|
口②②口 |②---|
口③③口 |③---|
④口口口 |④---|
83
口口①① |①--②|
②②⑤⑤ |--③-|
⑥⑥③③ |-④--|
④④口口 |⑤-⑥-|
84
①①口口 |----|
口口口口 |--①-|
口口口口 |----|
口口①① |----|

不確定度: 0

最終更新:2014年12月11日 23:18