STERLING SILVER
TAG

ADVANCED

Level: 8
BPM: 175
Notes: 579

1
口口口口 |----|
口口口口 |----|
口口口口 |----|
口口口口 |----|
2
⑥口①口 |①-②-|
口②口口 |③-④-|
⑦口③口 |⑤--⑥|
口④口⑤ |--⑦-|
3
口①口⑥ |①-②-|
口口②口 |③-④-|
口③口⑦ |⑤--⑥|
⑤口④口 |--⑦-|
4
⑥口①口 |①-②-|
口②口口 |③-④-|
⑦口③口 |⑤--⑥|
口④口⑤ |--⑦-|
5
口②①口 |①-②-|
④口口③ |③-④-|
口⑥⑤口 |⑤-⑥-|
⑧口口⑦ |⑦-⑧-|
6
⑤①①④ |①-②-|
口口⑧口 |③-④-|
③口口⑥ |⑤-⑥-|
口⑦②口 |⑦-⑧-|
7
口①①④ |①-②-|
⑤口口⑧ |③-④-|
⑦口口口 |⑤-⑥-|
③口⑥② |⑦-⑧-|
8
口①①④ |①-②-|
口⑤⑤⑧ |③-④-|
口口口⑥ |⑤-⑥-|
③⑦口② |⑦-⑧-|
9
③口口⑤ |①-②-|
口⑥口口 |③-④-|
口①①⑦ |⑤-⑥-|
④⑧口② |⑦-⑧-|
10
口口口口 |①---|
口口①口 |----|
口口口口 |----|
口口口口 |----|
11
口①②口 |①---|
①口口② |----|
②口口① |②---|
口②①口 |----|
12
④①③⑤ |①--②|
①②②③ |--③-|
③②②① |④---|
⑤③①④ |⑤---|
13
③①②④ |①---|
①⑤口口 |----|
口口⑤① |②-③-|
④②①③ |④-⑤-|
14
④②口口 |①--②|
⑤⑤③① |--③-|
①③⑤⑤ |④---|
口口②④ |⑤---|
15
口④口⑦ |①---|
口口口⑤ |②-③-|
②②口口 |④-⑤-|
①⑥①③ |⑥-⑦-|
16
①口①口 |①---|
口口③口 |②-③-|
②②口口
口口口口

口口⑦口
⑥口口口
口口口口 |④-⑤-|
④口口⑤ |⑥-⑦-|
17
④①口① |①--②|
口②⑤② |--③-|
⑥③口③ |④-⑤-|
口口口⑦ |⑥-⑦-|
18
口③②② |①--②|
③口口口 |--③-|
口口口③ |----|
①①③口 |----|
19
⑤口口口 |①-②-|
口④③② |③-④-|
口⑦⑦口 |⑤-⑥-|
①⑥口口 |--⑦-|
20
口①①口 |--①-|
口口口③ |----|
口口④口 |--②-|
②口口口 |③-④-|
21
口口口⑤ |①-②-|
②③④口 |③-④-|
口⑦⑦口 |⑤-⑥-|
口口⑥① |--⑦-|
22
口①①口 |--①-|
③口口口 |----|
口口口口 |--②-|
口口口② |③---|
23
⑤口口口 |①-②-|
口④③② |③-④-|
口⑦⑦口 |⑤-⑥-|
①⑥口口 |--⑦-|
24
口①①口 |--①-|
口口口③ |----|
口口④口 |--②-|
②口口口 |③-④-|
25
口⑥口口 |①-②-|
②③④⑦ |③-④-|
⑦口口口 |⑤-⑥-|
口口⑤① |--⑦-|
26
④⑤⑥口 |--①②|
口口口口 |③-④⑤|
口③②① |⑥-⑦⑧|
口⑦⑧⑨ |⑨---|
27
⑤口口口 |①-②-|
口④③② |③-④-|
①⑦⑦口 |⑤-⑥-|
①⑥口口 |--⑦-|
28
口①①口 |--①-|
口口口③ |----|
口口④口 |--②-|
②口口口 |③-④-|
29
口口口⑤ |①-②-|
②③④口 |③-④-|
口⑦⑦口 |⑤-⑥-|
口口⑥① |--⑦-|
30
口①①口 |--①-|
③口口口 |----|
口口口口 |--②-|
口口口② |③---|
31
⑤口口口 |①-②-|
口④③② |③-④-|
口⑦⑦口 |⑤-⑥-|
①⑥口口 |--⑦-|
32
口①①口 |--①-|
口口口③ |----|
口口④口 |--②-|
②口口口 |③-④-|
33
口⑥口口 |①-②-|
②③④⑦ |③-④-|
⑦口口口 |⑤-⑥-|
口口⑤① |--⑦-|
34
①口②口 |--①-|
③口④口 |②-③-|
口⑤口⑥ |④-⑤-|
口⑦口口 |⑥-⑦-|
35
②口口口 |①---|
口③口口 |②---|
口口④口 |③---|
口口口① |④---|
36
口口口口 |①---|
口口③④ |②---|
口口口口 |③---|
①②口口 |④---|
37
①口口③ |①---|
口②口口 |②---|
口口④口 |③---|
口口口口 |④---|
38
口口口口 |①---|
②口口口 |②---|
口口口口 |③---|
口①③口 |----|
39
②口口口 |①---|
口③口口 |②---|
口口④口 |③---|
①口口口 |④---|
40
口口口口 |①---|
口口③④ |②---|
口口口口 |③---|
①②口口 |④---|
41
①口口③ |①---|
口口口口 |②---|
④口②口 |③---|
口口口口 |④---|
42
口口口④ |①---|
①口口口 |②---|
口②口口 |③---|
口口③口 |④---|
43
口口口口 |①---|
口①①口 |----|
口口口口 |----|
口口口口 |----|
44
口口口口 |----|
口口口口 |----|
口口口口 |----|
口口口口 |----|
45
口①①口 |①---|
口②②口 |②---|
口③③口 |③---|
口④④口 |④---|
46
口口口口 |①-②-|
①口口② |③-④-|
③口口④ |⑤---|
⑤口口口 |----|
47
口①口口 |①-②-|
⑤⑧②口 |③-④-|
口③口⑥ |⑤-⑥-|
⑦口④口 |⑦-⑧-|
48
口口口② |①---|
口口③口 |②-③-|
④口①⑥ |④-⑤-|
口⑤口口 |⑥---|
49
口⑥④口 |①-②-|
②口口⑧ |③-④-|
口⑤③口 |⑤-⑥-|
①口口⑦ |⑦-⑧-|
50
①口口④ |①-②-|
口②③口 |③-④-|
⑤口⑥口 |⑤-⑥-|
口⑦口口 |⑦---|
51
口口④⑤ |①-②-|
口③⑥口 |③-④-|
口②⑦口 |⑤-⑥-|
①口⑧口 |⑦-⑧-|
52
口口口口 |①---|
口口④口 |--②-|
口②口口 |③---|
口①口③ |--④-|
53
⑤口④口 |①---|
口口口口 |②---|
①③口⑥ |③-④-|
口②口口 |⑤-⑥-|
54
口口口口 |①---|
口②口口 |②---|
口口口口 |③---|
①口③口 |----|
55
①②口口 |①-②-|
③④口口 |③-④-|
⑤⑥口口 |⑤-⑥-|
⑦⑧口口 |⑦-⑧-|
56
口口⑦⑧ |①-②-|
口口⑤⑥ |③-④-|
口口③④ |⑤-⑥-|
口口①② |⑦-⑧-|
57
①②口口 |①-②-|
③④口口 |③-④-|
⑤⑥口口 |⑤-⑥-|
⑦⑧口口 |⑦-⑧-|
58
口口⑦⑧ |①-②-|
口口⑤⑥ |③-④-|
口口③④ |⑤-⑥-|
口口①② |⑦-⑧-|
59
①②口口 |①-②-|
③口口口 |③---|
口口⑥口 |④-⑤-|
口口④⑤ |⑥---|
60
口口⑥口 |①-②-|
口口④⑤ |③---|
①②口口 |④-⑤-|
③口口口 |⑥---|
61
⑤口口口 |①-②-|
口口口⑥ |③-④-|
⑦③④口 |⑤-⑥-|
口①②口 |⑦---|
62
⑤口口口 |①-②-|
口口口⑥ |③-④-|
⑦③④口 |⑤-⑥-|
口①②口 |⑦---|
63
口①②口 |①-②-|
口③口口 |③---|
口⑥口口 |④-⑤-|
口④⑤口 |⑥---|
64
①口口② |①-②-|
③口口④ |③-④-|
⑤口口⑥ |⑤-⑥-|
⑦口口口 |⑦---|
65
口口口口 |①---|
口①①口 |----|
口口口口 |----|
口口口口 |----|
66
口口①① |----|
口口口口 |----|
②③④⑤ |--①-|
口口口口 |②③④⑤|
67
口口口口 |①---|
口④③② |--②③|
⑤⑥口口 |④---|
①口口口 |--⑤⑥|
68
③口口③ |①--②|
口④④口 |--③-|
口口①口 |④---|
⑤②②⑤ |⑤---|
69
②口口⑤ |①---|
口③⑥口 |--②③|
④①①口 |④---|
口口口口 |--⑤⑥|
70
口②②口 |①--②|
口口口口 |--③-|
口③③① |④---|
④口口④ |----|
71
④口口口 |①---|
口③⑥口 |--②③|
②口口⑤ |④---|
口①①口 |--⑤⑥|
72
口③③① |①--②|
④口口④ |--③-|
口⑤口口 |④---|
⑤②②口 |⑤---|
73
口口口口 |①---|
口④口口 |--②③|
③口①⑥ |④---|
口②⑤① |--⑤⑥|
74
②⑤⑤② |①--②|
口口①口 |--③-|
口③③口 |④---|
④口口④ |⑤---|
75
①口口② |①②③④|
③⑧⑦⑥ |⑤-⑥⑦|
⑨⑩口④ |⑧---|
口⑤口口 |--⑨⑩|
76
③口口③ |①--②|
口④④口 |--③-|
口口①口 |④---|
⑤②②⑤ |⑤---|
77
②口口⑤ |①---|
口③⑥口 |--②③|
④①①口 |④---|
口口口口 |--⑤⑥|
78
口②②口 |①--②|
口口口口 |--③-|
口③③① |④---|
④口口④ |----|
79
④口口口 |①---|
口③⑥口 |--②③|
②口口⑤ |④---|
口①①口 |--⑤⑥|
80
口③③① |①--②|
④口口④ |--③-|
口⑤口口 |④---|
⑤②②口 |⑤---|
81
口口口口 |①---|
口④口口 |--②③|
③口①⑥ |④---|
口②⑤① |--⑤⑥|
82
⑤②②⑤ |①--②|
③口①③ |--③-|
口口口口 |④---|
④口口④ |⑤---|
83
口⑤⑤口 |①--②|
③①②④ |--③-|
口①②口 |-④--|
③⑥⑥④ |⑤-⑥-|
84
口口口口 |----|
①①①① |--①-|
口①①口 |----|
口口口口 |----|

不確定度: 0

最終更新:2014年12月11日 23:18