Idola
iconoclasm feat.GUMI

BASIC

Level: 5
BPM: 201
Notes: 395

1
口口口口 |----|
口口口口 |----|
口口口口 |----|
口口口口 |----|
2
口口口口 |----|
口口口口 |----|
口口口口 |----|
口口口口 |----|
3
②口口② |①---|
口①①口 |----|
口①①口 |----|
口口口口 |--②-|
4
口口口口 |----|
口口口口 |----|
口②②口 |①---|
口①①口 |②---|
5
口口②② |①---|
口①①口 |----|
口口口口 |②---|
口口口口 |----|
6
①①口口 |①---|
②②口口 |②---|
③③口口 |③---|
口口口口 |----|
7
口②①口 |①---|
口口口口 |----|
口口口口 |②---|
口口口口 |----|
8
口口口口 |①---|
②口口① |----|
口口口口 |②---|
口口口口 |----|
9
口口口口 |①---|
②①①② |----|
②①①② |②---|
口口口口 |----|
10
口口口口 |①---|
②①①② |----|
②①①② |②---|
口口口口 |----|
11
口口口口 |----|
口口口口 |----|
口口口口 |----|
口口口口 |----|
12
口口口口 |----|
口口口口 |----|
口口口口 |----|
口口口口 |----|
13
口口口口 |----|
口口口口 |----|
口口口口 |----|
口口口口 |----|
14
口口口口 |----|
口口口口 |----|
口口口口 |----|
口口口口 |----|
15
口口口口 |----|
口口口口 |----|
口口口口 |----|
口口口口 |----|
16
口口口口 |----|
口口口口 |----|
口口口口 |----|
口口口口 |----|
17
口口口口 |----|
口口口口 |----|
口口口口 |----|
口口口口 |----|
18
口口口口 |----|
口口口口 |----|
口口口口 |----|
口口口口 |----|
19
口口口④ |①---|
口口口③ |②---|
口口口② |③---|
口口口① |④---|
20
④口口口 |①---|
③口口口 |②---|
②口口口 |③---|
①口口口 |④---|
21
口口口口 |①---|
口②①口 |②---|
口④③口 |③---|
口口口口 |④---|
22
④口口④ |①---|
③口口③ |②---|
②口口② |③---|
①口口① |④---|
23
口口口口 |①---|
口②①口 |②---|
④③口口 |③---|
口口口口 |④---|
24
口口口口 |①---|
口口口口 |②---|
口口①② |③---|
④③口口 |④---|
25
口口口口 |①---|
口④④口 |②---|
口③③口 |③---|
口口①② |④---|
26
①①①① |①---|
口口口口 |----|
口口口口 |----|
口口口口 |----|
27
口口口口 |①---|
口①①口 |----|
口①①口 |----|
口口口口 |----|
28
①①①① |①---|
口口口口 |----|
口口口口 |----|
口口口口 |----|
29
口口口口 |①---|
口口口口 |----|
口口口口 |----|
①①①① |----|
30
④③②① |①---|
口口口口 |②---|
口口口口 |③---|
口口口口 |④---|
31
口口口口 |①---|
④③②① |②---|
口口口口 |③---|
口口口口 |④---|
32
口口口口 |①---|
口口口口 |②---|
①②③④ |③---|
口口口口 |④---|
33
口口口口 |①---|
口口口口 |②---|
口口口口 |③---|
①②③④ |④---|
34
口口口口 |①---|
口①①口 |----|
口①①口 |②---|
口③②口 |③---|
35
口口口口 |①---|
①口口① |----|
①口口① |②---|
口③②口 |③---|
36
口口口口 |①---|
口①①口 |----|
口①①口 |②---|
口③②口 |③---|
37
①①①① |①---|
口口口口 |----|
口口口口 |②---|
口③②口 |③---|
38
口口口口 |①---|
①①口口 |----|
①①口口 |②---|
口③②口 |③---|
39
口口口口 |①---|
①口口① |----|
①口口① |②---|
口③②口 |③---|
40
口口口口 |①---|
口口①① |----|
口口①① |②---|
口③②口 |③---|
41
④口口④ |①---|
③口口③ |②---|
②口口② |③---|
①口口① |④---|
42
口口口口 |①---|
口①①口 |----|
口①①口 |----|
口口口口 |----|
43
口口口口 |----|
口口口口 |----|
口口口口 |----|
口口口口 |----|
44
口口口口 |----|
口口口口 |----|
口口口口 |----|
口口口口 |----|
45
口口口口 |----|
口口口口 |----|
口口口口 |----|
口口口口 |----|
46
口口口④ |①---|
口口口③ |②---|
口口口② |③---|
口口口① |④---|
47
④口口口 |①---|
③口口口 |②---|
②口口口 |③---|
①口口口 |④---|
48
④③②① |①---|
口口口口 |②---|
口口口口 |③---|
口口口口 |④---|
49
口口口口 |①---|
④③②① |②---|
口口口口 |③---|
口口口口 |④---|
50
口口口口 |①---|
口口口口 |②---|
④③①② |③---|
口口口口 |④---|
51
口口口口 |①---|
口口口口 |②---|
口口口口 |③---|
④③①② |④---|
52
口口口口 |①---|
口④③口 |②---|
口②①口 |③---|
口口口口 |④---|
53
③口口③ |①---|
②口口② |----|
口口口口 |②---|
①口口① |③---|
54
口口口口 |①---|
②①①口 |----|
口①①口 |----|
口口口口 |②---|
55
口口口① |①---|
口口口口 |----|
口口口③ |②---|
口口口② |③---|
56
口口口口 |①---|
④③②① |②---|
口口口口 |③---|
口口口口 |④---|
57
口口口口 |①---|
口口口口 |②---|
④③①② |③---|
口口口口 |④---|
58
口口口口 |①---|
口口口口 |②---|
口④②口 |③---|
口③①口 |④---|
59
口口口口 |①---|
④口口② |②---|
③口口① |③---|
口口口口 |④---|
60
口①①口 |①---|
口口口口 |----|
口③②口 |②---|
口口口口 |③---|
61
口口口口 |①---|
口口口① |----|
口口口口 |②---|
口②③口 |③---|
62
口口口② |①---|
①口口口 |----|
口口口口 |----|
口口口口 |②---|
63
口②①口 |①---|
口口口口 |----|
口口口口 |----|
口口口口 |②---|
64
①口口口 |①---|
口口口② |----|
口口口口 |----|
口口口口 |②---|
65
口口口口 |①---|
口口①口 |----|
口口口口 |----|
口口口口 |----|
66
口①①口 |①---|
口口口口 |----|
口口口口 |②---|
口②②口 |----|
67
口口口口 |①---|
口口口口 |②---|
①②③④ |③---|
口口口口 |④---|
68
口口口口 |①---|
口①①口 |----|
口口口口 |②---|
口②②口 |----|
69
口口口口 |①---|
口口口口 |②---|
④③②① |③---|
口口口口 |④---|
70
口口口口 |①---|
口口口口 |----|
口口口口 |②---|
②口口① |----|
71
口口口口 |①---|
口口口口 |----|
②口口① |②---|
口口口口 |----|
72
口口①口 |①---|
口②口口 |----|
口口口口 |②---|
口口口口 |----|
73
口口口口 |①---|
口口口口 |----|
口口①口 |②---|
口②口口 |----|
74
①①口口 |①---|
口口口口 |----|
口口口口 |----|
口口口口 |----|
75
口口口口 |----|
口口口口 |----|
口口口口 |----|
口口口口 |----|
76
口口口口 |----|
口口口口 |----|
口口口口 |----|
口口口口 |----|
77
口口口口 |①---|
口①①口 |②---|
口②②口 |③---|
口③③口 |----|
78
口口口④ |①---|
口口口③ |②---|
口口口② |③---|
口口口① |④---|
79
④口口口 |①---|
③口口口 |②---|
②口口口 |③---|
①口口口 |④---|
80
口口④口 |①---|
口口③口 |②---|
口口②口 |③---|
口口①口 |④---|
81
口④口口 |①---|
口③口口 |②---|
口②口口 |③---|
口①口口 |④---|
82
口口①② |①---|
④③口口 |②---|
口口口口 |③---|
口口口口 |④---|
83
口口口口 |①---|
口口口口 |②---|
口口①② |③---|
④③口口 |④---|
84
口口口口 |①---|
口口口口 |②---|
口④②口 |③---|
口③①口 |④---|
85
④口口④ |①---|
③口口③ |②---|
②口口② |③---|
①口口① |④---|
86
口口口口 |①---|
口①①口 |②---|
口①①口 |③---|
口④③② |④---|
87
口口口口 |①---|
口口口口 |②---|
①②③④ |③---|
口口口口 |④---|
88
口口口口 |①---|
④③②① |②---|
口口口口 |③---|
口口口口 |④---|
89
口口口口 |①---|
口口口口 |②---|
①②③④ |③---|
口口口口 |④---|
90
口口①② |①---|
④③口口 |②---|
口口口口 |③---|
口口口口 |④---|
91
口口口口 |①---|
口口口口 |②---|
口口①② |③---|
④③口口 |④---|
92
口口口口 |①---|
口口口口 |②---|
口④②口 |③---|
口③①口 |④---|
93
①口口① |①---|
②口口② |②---|
③口口③ |③---|
④口口④ |④---|
94
口口口② |①---|
口①①口 |----|
口①①口 |②---|
口口口口 |----|
95
口口口口 |①---|
口口口① |----|
口口口② |②---|
口口口口 |----|
96
②口口口 |①---|
口①①口 |----|
口①①口 |②---|
口口口口 |----|
97
口口口口 |①---|
①口口口 |----|
②口口口 |②---|
口口口口 |----|
98
②口口② |①---|
口①①口 |----|
口①①口 |----|
口口口口 |--②-|
99
口口口口 |----|
口口口口 |----|
口②②口 |①---|
口①①口 |②---|
100
口口②② |①---|
口①①口 |----|
口口口口 |②---|
口口口口 |----|
101
①①口口 |①---|
③口口② |②---|
③口口② |③---|
口④④口 |④---|
102
口口①② |①---|
④③口口 |②---|
口口口口 |③---|
口口口口 |④---|
103
口口口口 |①---|
口口口口 |②---|
口口①② |③---|
④③口口 |④---|
104
口口口口 |①---|
口口口口 |②---|
口④②口 |③---|
口③①口 |④---|
2
BPM: 203
105
④口口② |①---|
③口口① |②---|
口口口口 |③---|
口口口口 |④---|
106
口口口口 |①---|
口①①口 |----|
口①①口 |----|
口口口口 |----|

不確定度: 0

最終更新:2014年12月11日 23:17