幻想系世界修復少女
Last Note.

BASIC

Level: 5
BPM: 193
Notes: 301

1
口口口口 |----|
口口口口 |----|
口口口口 |----|
口口口口 |----|
2
口口口口 |①---|
口口①① |----|
口口口口 |----|
口口口口 |----|
3
口口口口 |----|
口口口口 |----|
口口口口 |----|
口口口口 |----|
4
口口口口 |①---|
①①口口 |----|
口口口口 |----|
口口口口 |----|
5
口口口口 |----|
口①①口 |----|
口②②口 |①---|
口口口口 |②---|
6
口口口口 |①---|
口口口口 |----|
口口口② |②---|
口口口① |----|
7
口口口② |①---|
口口口① |----|
口口口口 |②---|
口口口口 |----|
8
口口口⑤ |①---|
口④③口 |②---|
口②①口 |③---|
口口口口 |④-⑤-|
9
口口口口 |----|
口口口口 |----|
口口口口 |----|
口口口口 |----|
10
口口口口 |①---|
口口口口 |②---|
口口口口 |③---|
④③②① |④---|
11
③③口口 |①---|
④④口口 |②---|
口口②① |③---|
口口口口 |④---|
12
口口口口 |①---|
口口口口 |②---|
口口口口 |③---|
①②③④ |④---|
13
口口③③ |①---|
口口④④ |②---|
①②口口 |③---|
口口口口 |④---|
14
口口口口 |①---|
口口口口 |②---|
④③②① |③---|
口口口口 |④---|
15
③③口口 |①---|
④④②① |②---|
口口口口 |③---|
口口口口 |④---|
16
口口口口 |①---|
口口口口 |②---|
①②③④ |③---|
口口口口 |④---|
17
口口③③ |①---|
①②④④ |②---|
口口口口 |③---|
口口口口 |④---|
18
①口口口 |----|
②口口口 |①---|
③口口口 |②---|
口口口口 |③---|
19
口口口口 |①---|
口④④口 |②---|
口③③口 |③---|
①②口口 |④---|
20
口口口① |----|
口口口② |①---|
口口口③ |②---|
口口口口 |③---|
21
口口口口 |①---|
口④④口 |②---|
口③③口 |③---|
口口②① |④---|
22
①口口口 |----|
②口口口 |①---|
③口口口 |②---|
口口口口 |③---|
23
口口口口 |①---|
口④④口 |②---|
口③③口 |③---|
①②口口 |④---|
24
①口口① |①---|
②口口② |----|
口口口口 |②---|
口口口口 |----|
25
口口口口 |①---|
口口口口 |----|
口②②口 |②---|
口①①口 |----|
26
口口④③ |①---|
口①①② |②---|
口口口口 |③---|
口口口口 |④---|
27
②①口口 |①---|
口④④口 |②---|
口③③口 |③---|
口口口口 |④---|
28
②③口口 |----|
①口口口 |①---|
口口口口 |②---|
口口口口 |③---|
29
口口①② |①---|
口④④口 |②---|
口③③口 |③---|
口口口口 |④---|
30
口口③② |----|
口口口① |①---|
口口口口 |②---|
口口口口 |③---|
31
②①口口 |①---|
口④④口 |②---|
口③③口 |③---|
口口口口 |④---|
32
②口口① |①---|
口口口口 |----|
口口口口 |②---|
口口口口 |----|
33
口口口① |①---|
口口②口 |②---|
口③口口 |③---|
④口口口 |④---|
34
口口口口 |①---|
口口③③ |--②-|
②②口口 |----|
口口①① |③---|
35
口口口口 |----|
③口口口 |①---|
②口口口 |②---|
①口口口 |③---|
36
①②③④ |①---|
口口口口 |②---|
口口口口 |③---|
口口口口 |④---|
37
口口口口 |①---|
①②③④ |②---|
口口口口 |③---|
口口口口 |④---|
38
口口口口 |①---|
③③口口 |--②-|
口口②② |----|
①①口口 |③---|
39
口口口口 |----|
口口口③ |①---|
口口口② |②---|
口口口① |③---|
40
口口口① |①---|
口口口口 |----|
口口口口 |----|
口口口口 |----|
41
口口口口 |①---|
口①①口 |----|
口②②口 |②---|
口口口口 |----|
42
口口口口 |①---|
口口③③ |--②-|
②②口口 |----|
口口①① |③---|
43
口口口口 |----|
③口口口 |①---|
②口口口 |②---|
①口口口 |③---|
44
①②③④ |①---|
口口口口 |②---|
口口口口 |③---|
口口口口 |④---|
45
口口口口 |①---|
①②③④ |②---|
口口口口 |③---|
口口口口 |④---|
46
口口口口 |①---|
口口口口 |②---|
口④③口 |③---|
口②①口 |④---|
47
口④③口 |①---|
口②①口 |②---|
口口口口 |③---|
口口口口 |④---|
48
②口③① |①---|
口口口口 |--②-|
口口口口 |----|
口口口口 |③---|
49
口①口口 |①---|
口口口口 |----|
口口口口 |----|
口口口口 |----|
50
口口口口 |①---|
口口口口 |②---|
④③口口 |③---|
口口②① |④---|
51
口口口口 |①---|
④③口口 |②---|
口口②① |③---|
口口口口 |④---|
52
①②③④ |①---|
口口口口 |②---|
口口口口 |③---|
口口口口 |④---|
53
口口口口 |①---|
口口口① |----|
口口口② |----|
口口口口 |②---|
54
①②口口 |①---|
口口③④ |②---|
口口口口 |③---|
口口口口 |④---|
55
口口口口 |①---|
①②口口 |②---|
口口③④ |③---|
口口口口 |④---|
56
口口口口 |①---|
③口口口 |②---|
②口口口 |③---|
①⑤④口 |④-⑤-|
57
口口③③ |--①-|
口②①口 |--②-|
口口口口 |③---|
口口口口 |----|
58
口口口口 |①---|
口口口口 |②---|
④③口口 |③---|
口口②① |④---|
59
口口口口 |①---|
④③口口 |②---|
口口②① |③---|
口口口口 |④---|
60
口口①① |①---|
口口②② |②---|
③③口口 |--③-|
④④口口 |--④-|
61
口口口口 |----|
口口口口 |----|
口口口① |----|
口口口口 |①---|
62
口口口口 |①---|
口口口口 |②---|
③口口④ |③---|
口①②口 |④---|
63
口③④口 |①---|
①口口② |②---|
口口口口 |③---|
口口口口 |④---|
64
口口口口 |①---|
口①①口 |----|
口②②口 |----|
口口口口 |②---|
65
口口口口 |----|
口口口口 |----|
口口口口 |----|
口口口口 |----|
66
口口口口 |①---|
口口口口 |②---|
口口口口 |③---|
④③②① |④---|
67
③③口口 |①---|
④④口口 |②---|
口口②① |③---|
口口口口 |④---|
68
口口口口 |①---|
口口口口 |②---|
口口口口 |③---|
①②③④ |④---|
69
口口③③ |①---|
口口④④ |②---|
①②口口 |③---|
口口口口 |④---|
70
口口口口 |①---|
口口口口 |②---|
④③②① |③---|
口口口口 |④---|
71
③③口口 |①---|
④④②① |②---|
口口口口 |③---|
口口口口 |④---|
72
口口口口 |①---|
口口口口 |②---|
①②③④ |③---|
口口口口 |④---|
73
口口③③ |①---|
①②④④ |②---|
口口口口 |③---|
口口口口 |④---|
74
口口口⑤ |①---|
口口口口 |②---|
口④③口 |③---|
口②①口 |④-⑤-|
75
④口口口 |----|
口口口口 |①---|
口口③口 |②---|
口②①口 |③-④-|
76
④④口口 |----|
口口口口 |①---|
口口③口 |②---|
口②①口 |③-④-|

不確定度: 0

最終更新:2014年12月11日 23:16