幻想系世界修復少女
Last Note.

ADVANCED

Level: 7
BPM: 193
Notes: 461

1
口口口口 |----|
口口口口 |----|
口口口口 |----|
口口口口 |----|
2
①口口口 |①---|
口口口口 |②-③-|
口口口口
③口口②

⑦口口口
口口口⑥
⑤口口④ |④-⑤-|
口口口口 |⑥-⑦-|
3
口⑥⑤口 |--①-|
口口⑦口 |②-③-|
口④③口 |④-⑤-|
口②①口 |⑥-⑦-|
4
①口口口 |①---|
口口口口 |②-③-|
口口口口
③口口②

⑦口口口
口口口⑥
⑤口口④ |④-⑤-|
口口口口 |⑥-⑦-|
5
口⑥⑤口 |--①-|
口口⑦口 |②-③-|
口④③口 |④-⑤-|
口②①口 |⑥-⑦-|
6
①口口⑧ |①-②-|
口口口口 |③-④-|
⑦口口⑥ |⑤-⑥-|
⑤③②④ |⑦-⑧-|
7
口⑤⑥口 |--①-|
口⑦口口 |②-③-|
口③④口 |④-⑤-|
口①②口 |⑥-⑦-|
8
④⑧口口 |①-②-|
口口⑦③ |③-④-|
②⑥口口 |⑤-⑥-|
口口⑤① |⑦-⑧-|
9
口口口口 |----|
口口口口 |----|
口口口口 |----|
口口口口 |----|
10
口口①① |①---|
口⑤②② |②---|
③④口口 |③-④-|
口口口口 |--⑤-|
11
口口③③ |①-②-|
口口口口 |--③-|
④口①⑤ |④-⑤-|
⑥②口⑦ |⑥-⑦-|
12
①口②口 |--①-|
口③⑥④ |②-③-|
⑤口口口 |④-⑤-|
口口口口 |--⑥-|
13
⑦口口⑥ |①-②-|
⑤口口④ |--③-|
口①口口 |④-⑤-|
③③②口 |⑥-⑦-|
14
口口①口 |①---|
口⑤②口 |②---|
③④口口 |③-④-|
口口口口 |--⑤-|
15
口口③③ |①-②-|
口口口口 |--③-|
④口①⑤ |④-⑤-|
⑥②口⑦ |⑥-⑦-|
16
①口②口 |--①-|
口③⑥④ |②-③-|
⑤口口口 |④-⑤-|
口口口口 |--⑥-|
17
⑦口口⑥ |①-②-|
⑤口口④ |--③-|
口①口口 |④-⑤-|
③③②口 |⑥-⑦-|
18
⑤口口口 |----|
④口口口 |①-②-|
口③②① |③---|
口口口口 |④-⑤-|
19
口④口口 |--①-|
口口③口 |②-③-|
②口口口 |④---|
口⑤⑤① |⑤---|
20
口口口⑤ |----|
口口口④ |①-②-|
①②③口 |③---|
口口口口 |④-⑤-|
21
口口④口 |--①-|
口③口口 |②-③-|
口口口② |④---|
①口⑤⑤ |⑤---|
22
④口口口 |----|
③口口口 |①---|
口②口① |②---|
口口口口 |③-④-|
23
口口④口 |--①-|
口③口口 |②-③-|
口口口② |④---|
①口⑤⑤ |⑤---|
24
口②③口 |①---|
②口口③ |②---|
①⑤口④ |③---|
⑤①④口 |④-⑤-|
25
①口口② |--①-|
口①②口 |--②-|
口④③口 |--③-|
④口口③ |--④-|
26
口②口① |----|
口口③口 |①-②-|
⑤口口口 |③---|
④口口口 |④-⑤-|
27
口口④口 |--①-|
口③口口 |②-③-|
口口②口 |④---|
⑤①口⑤ |⑤---|
28
①口②口 |----|
口③口口 |①-②-|
口口口⑤ |③---|
口口口④ |④-⑤-|
29
⑥④口口 |--①-|
⑥④③⑤ |②-③-|
口②口口 |④-⑤-|
口口①口 |⑥---|
30
口②口① |----|
口口③口 |①-②-|
⑤口口口 |③---|
④口口口 |④-⑤-|
31
口口④口 |--①-|
口③口口 |②-③-|
口口②口 |④---|
⑤①口⑤ |⑤---|
32
①①口口 |①---|
口口②② |----|
口口口口 |②---|
口口口口 |----|
33
口口口口 |①---|
口口口口 |②---|
①①②② |③---|
③③④④ |④---|
34
①口口口 |①---|
①口①② |--②-|
③②③② |----|
③口口口 |③---|
35
口口口口 |----|
口口口③ |①---|
口口口② |②---|
口口口① |③---|
36
②口口① |①---|
口④③口 |②---|
口口口口 |③-④-|
⑤口口口 |--⑤-|
37
口口④④ |--①-|
口口③③ |②---|
口②①口 |③---|
口口口口 |④---|
38
③口口口 |①---|
③②③② |--②-|
①口①② |----|
①口口口 |③---|
39
口口口口 |----|
③口口口 |①---|
②口口口 |②---|
①口口口 |③---|
40
①口口口 |①---|
口口口口 |----|
口口口口 |----|
口口口口 |----|
41
口口口口 |①---|
②口口① |----|
②口口① |②---|
口口口口 |----|
42
口口口① |①---|
②①②① |--②-|
②③口③ |----|
口口口③ |③---|
43
口口口口 |----|
③口口口 |①---|
②口口口 |②---|
①口口口 |③---|
44
①口口② |①---|
口③④口 |②---|
口口口口 |③-④-|
口口口⑤ |--⑤-|
45
④④口口 |--①-|
③③口口 |②---|
口①②口 |③---|
口口口口 |④---|
46
口口口③ |①---|
口口口③ |②---|
①④⑤口 |③---|
①口②② |④-⑤-|
47
①①口口 |--①-|
⑤口口④ |--②-|
③口口② |③-④-|
口口口口 |⑤---|
48
口口口口 |①---|
口③③口 |--②-|
口②②口 |----|
口①①口 |③---|
49
①①①① |①---|
口口口口 |----|
口口口口 |----|
口口口口 |----|
50
口口③② |①---|
口口③② |--②-|
④⑤口口 |③---|
口①①口 |--④⑤|
51
②③口口 |①---|
②③口口 |--②-|
④口①④ |③---|
口口口口 |④---|
52
口③②口 |①---|
口⑤④口 |②-③-|
⑦①①⑥ |④-⑤-|
口口口口 |⑥-⑦-|
53
口口口口 |①---|
口口③② |----|
口口口口 |--②-|
口口①① |--③-|
54
口口口口 |①---|
④③口口 |②-③-|
口①②口 |--④-|
口⑤口口 |--⑤-|
55
口口口③ |----|
口口口② |①---|
口口口① |②---|
口口口口 |③---|
56
口口⑤口 |①-②-|
口①④口 |③-④-|
口②③口 |⑤---|
口⑦⑥口 |⑥-⑦-|
57
③口口③ |--①-|
②口口② |--②-|
口①①口 |③---|
口口口口 |----|
58
②③口口 |①---|
②③口口 |--②-|
口口⑤④ |③---|
口①①口 |--④⑤|
59
口口③② |①---|
口口③② |--②-|
④①口④ |③---|
口口口口 |④---|
60
⑤口口⑤ |①-②-|
口口口口 |③-④-|
⑥④③⑥ |--⑤-|
口②①口 |--⑥-|
61
口口口口 |----|
口口口口 |----|
口口②口 |--①-|
口③口① |②-③-|
62
④口口② |①---|
口③①口 |②-③-|
口口⑤口 |--④-|
口口口口 |--⑤-|
63
口口口口 |--①-|
⑦口口口 |②-③-|
⑤口口⑥ |④-⑤-|
③①②④ |⑥-⑦-|
64
⑥②①⑦ |①-②-|
口④③口 |③-④-|
口口⑤口 |⑤---|
口口口口 |⑥-⑦-|
65
口口口口 |①-②-|
①口口② |③---|
口口口口 |----|
③③口口 |----|
66
口口口口 |①---|
口口口口 |②---|
口口②②
口口①①

口口口口
③④口口
口口口口 |③-④-|
口口⑤口 |--⑤-|
67
口⑥⑤口 |①-②-|
⑦口②④ |--③-|
口①③口 |④-⑤-|
口口口口 |⑥-⑦-|
68
口⑥口口 |--①-|
口口口⑤ |②-③-|
④口口③ |④-⑤-|
②口口① |--⑥-|
69
口口口口 |①-②-|
口③①口 |--③-|
④②口⑦ |④-⑤-|
口⑤⑥口 |⑥-⑦-|
70
①①口口 |①---|
②②口口 |②---|
口⑤口口 |③-④-|
口口④③ |--⑤-|
71
口②⑤④ |①-②-|
⑦⑥①③ |--③-|
口口口口 |④-⑤-|
口口口口 |⑥-⑦-|
72
⑥口口口 |--①-|
口口⑤口 |②-③-|
口④③口 |④-⑤-|
口②①口 |--⑥-|
73
口口①口 |①-②-|
口②⑥⑦ |--③-|
④⑤口口 |④-⑤-|
口口口③ |⑥-⑦-|
74
⑤⑤口口 |①---|
口③④口 |②---|
口口②口 |③---|
口①口口 |④-⑤-|
75
口口④④ |----|
口③口口 |①---|
口口②口 |②---|
口口①口 |③-④-|
76
④④④④ |----|
口③③口 |①---|
口②口口 |②---|
口①口口 |③-④-|

不確定度: 0

最終更新:2014年12月11日 23:15