バンブーソード・ガール
cosMo@暴走P

BASIC

Level: 5
BPM: 208
Notes: 342

1
口口口口 |----|
口口口口 |----|
口口口口 |----|
口口口口 |----|
2
口口口口 |①---|
口②②口 |----|
口①①口 |②---|
口口口口 |----|
3
口②②口 |①---|
口口口口 |----|
口口口口 |②---|
口①①口 |----|
4
口口口口 |①---|
①口口② |----|
①口口② |②---|
口口口口 |----|
5
口口口口 |①---|
口①②口 |----|
口①②口 |②---|
口口口口 |----|
6
口口口口 |①---|
口口口口 |②---|
口③④口 |③---|
口①②口 |④---|
7
口口②② |①---|
①①③③ |----|
口口口口 |②---|
口口口口 |③---|
8
口口口口 |①---|
口口口口 |②---|
口④③口 |③---|
口②①口 |④---|
9
②②口口 |①---|
③③①① |----|
口口口口 |②---|
口口口口 |③---|
10
口口口口 |①---|
口口口口 |②---|
口③④口 |③---|
口①②口 |④---|
11
口口②② |①---|
①①③③ |----|
口口口口 |②---|
口口口口 |③---|
12
口口口口 |①---|
口口口口 |②---|
口④③口 |③---|
口②①口 |④---|
13
②②口口 |①---|
③③①① |----|
口口口口 |②---|
口口口口 |③---|
14
口口口口 |①---|
口口口口 |----|
口口口口 |②---|
口②①口 |----|
15
口口口口 |①---|
④口口③ |②---|
②口口① |③---|
口口口口 |④---|
16
口口①口 |①---|
口口口口 |----|
口口口口 |----|
口口口口 |----|
17
口口口口 |①---|
口口①口 |----|
口口口口 |----|
口口口口 |----|
18
口口口口 |①---|
口口口口 |----|
口①口口 |----|
口口口口 |----|
19
口口口口 |①---|
口口口口 |----|
口口口口 |----|
口①口口 |----|
20
口口口口 |①---|
口口口口 |----|
口口口口 |----|
口口①口 |----|
21
口口口口 |①---|
口口口口 |----|
口口①口 |----|
口口口口 |----|
22
口口口口 |①---|
口①口口 |----|
口口口口 |----|
口口口口 |----|
23
口①口口 |①---|
口口口口 |----|
口口口口 |----|
口口口口 |----|
24
口口口口 |①---|
①②③④ |②---|
口口口口 |③---|
口口口口 |④---|
25
口口②① |①---|
④③口口 |②---|
口口口口 |③---|
口口口口 |④---|
26
口口口口 |①---|
口口口口 |②---|
①②③④ |③---|
口口口口 |④---|
27
口口口口 |①---|
口口②① |②---|
④③口口 |③---|
口口口口 |④---|
28
口口口口 |①---|
口口口② |----|
口口②口 |②---|
口①①口 |----|
29
口口口口 |①---|
②口口口 |----|
口②口口 |②---|
口①①口 |----|
30
口口口口 |①---|
口口口口 |----|
口②②口 |②---|
口①①口 |----|
31
②口口② |①---|
①口口① |----|
口口口口 |②---|
口口口口 |----|
32
口口口口 |①---|
口口口口 |----|
口②口口 |②---|
口口①口 |----|
33
②②口口 |①---|
口口①口 |----|
口口口口 |②---|
口口口口 |----|
34
口口口口 |①---|
口②口口 |----|
口口①口 |②---|
口口口口 |----|
35
口口①① |①---|
口②②口 |----|
口口口口 |②---|
口口口口 |----|
36
口口口口 |①---|
①口口口 |----|
口②口口 |②---|
口口口口 |----|
37
口口口口 |①---|
口口①口 |----|
口口口② |②---|
口口口口 |----|
38
口口口口 |①---|
口口口① |----|
口口②口 |②---|
口口口口 |----|
39
口口口口 |①---|
口①口口 |----|
②口口口 |②---|
口口口口 |----|
40
口口口口 |①---|
口口口口 |----|
口口口口 |②---|
①口②口 |----|
41
口口口口 |①---|
口口口口 |----|
口②口① |②---|
口口口口 |----|
42
口口口口 |①---|
①口②口 |----|
口口口口 |②---|
口口口口 |----|
43
口②口① |①---|
口口口口 |----|
口口口口 |②---|
口口口口 |----|
44
口口口口 |①---|
口①①口 |----|
口②②口 |②---|
口口口口 |----|
45
②口口② |①---|
口口口口 |----|
口口口口 |②---|
①口口① |----|
46
口口口口 |①---|
口①①口 |----|
口口口口 |----|
口口口口 |----|
47
口口口口 |①---|
口②②口 |----|
①②②① |②---|
口口口口 |----|
48
口口口口 |①---|
②④口口 |②---|
口口口口 |③---|
①③口口 |④---|
49
口口口口 |①---|
口口②④ |②---|
口口口口 |③---|
口口①③ |④---|
50
口口口口 |①---|
口口口口 |②---|
①②③④ |③---|
口口口口 |④---|
51
口口口② |①---|
口③③① |②---|
口口口口 |③---|
口口口口 |----|
52
口口口口 |①---|
口口④② |②---|
口口口口 |③---|
口口③① |④---|
53
口口口口 |①---|
④②口口 |②---|
口口口口 |③---|
③①口口 |④---|
54
口口口口 |①---|
口口口口 |②---|
④③②① |③---|
口口口口 |④---|
55
口口①① |①---|
口口②② |②---|
口口③③ |③---|
口口口口 |----|
56
①①口口 |①---|
②②口口 |②---|
③③口口 |③---|
口口口口 |----|
57
口口口口 |①---|
口②口④ |②---|
口口口口 |③---|
①口③口 |④---|
58
口口口口 |①---|
④口②口 |②---|
口口口口 |③---|
口③口① |④---|
59
口口口口 |①---|
口口口口 |②---|
④②①③ |③---|
口口口口 |④---|
60
③②②③ |①---|
口①①口 |②---|
口口口口 |③---|
口口口口 |----|
61
口口口口 |①---|
④口②口 |②---|
口口口口 |③---|
口③口① |④---|
62
口口口口 |①---|
口②口④ |②---|
口口口口 |③---|
①口③口 |④---|
63
口口口口 |①---|
口口口口 |②---|
③①②④ |③---|
口口口口 |④---|
64
③②②③ |①---|
口①①口 |②---|
口口口口 |③---|
口口口口 |----|
65
口口口口 |①---|
口口口① |----|
口口口口 |----|
口口口口 |----|
66
口口口口 |①---|
口口①口 |----|
口口口口 |----|
口口口口 |----|
67
口口口口 |①---|
口①口口 |----|
口口口口 |----|
口口口口 |----|
68
口口口口 |①---|
①口口口 |----|
口口口口 |----|
口口口口 |----|
69
口口口口 |①---|
口①②口 |----|
口②①口 |②---|
口口口口 |----|
70
口①②口 |①---|
口口口口 |----|
口口口口 |②---|
口②①口 |----|
71
口口口口 |①---|
①口口② |----|
②口口① |②---|
口口口口 |----|
72
①口口② |①---|
口口口口 |----|
口口口口 |②---|
②口口① |----|
73
口口口口 |①---|
口①②口 |----|
口②①口 |②---|
口口口口 |----|
74
口①②口 |①---|
口口口口 |----|
口口口口 |②---|
口②①口 |----|
75
口口口口 |①---|
①②③④ |②---|
口口口口 |③---|
口口口口 |④---|
76
口口口口 |①---|
口口口口 |②---|
①②③④ |③---|
口口口口 |④---|
77
口口②① |①---|
④③口口 |②---|
口口口口 |③---|
口口口口 |④---|
78
①②口口 |①---|
口口③④ |②---|
口口口口 |③---|
口口口口 |④---|
79
口口口口 |①---|
口口口口 |②---|
②④口口 |③---|
①③口口 |④---|
80
口口口口 |①---|
口口口口 |②---|
口口②④ |③---|
口口①③ |④---|
81
①②口口 |①---|
口口③④ |②---|
口口口口 |③---|
口口口口 |④---|
82
口口②① |①---|
④③口口 |②---|
口口口口 |③---|
口口口口 |④---|
83
口口口口 |①---|
口口口口 |②---|
口口④② |③---|
口口③① |④---|
84
口口口口 |①---|
口口口口 |②---|
④②口口 |③---|
③①口口 |④---|
85
口口口口 |①---|
口②①口 |②---|
口④③口 |③---|
口口口口 |④---|
86
口口口口 |①---|
①口口② |②---|
③口口④ |③---|
口口口口 |④---|
87
口口③口 |①---|
②④口口 |②---|
口口①口 |③---|
口口口口 |④---|
88
口口口口 |①---|
口口口③ |②---|
口口口① |③---|
口②口口 |----|
89
口④口口 |①---|
口口③口 |②---|
口口①口 |③---|
②口口口 |④---|
90
口口口① |①---|
②口口口 |②---|
口口③口 |③---|
口④口口 |④---|
91
口口口③ |①---|
口②口口 |②---|
④口口① |③---|
口口口口 |④---|
92
口口口口 |①---|
口③③口 |②---|
口②②口 |③---|
口①①口 |----|
93
口口口口 |①---|
①口口① |----|
②口口② |②---|
口口口口 |----|
94
①口口① |①---|
口口口口 |----|
口口口口 |②---|
②口口② |----|
95
口口口口 |①---|
口②①口 |----|
口②①口 |②---|
口口口口 |----|
96
口③③口 |①---|
②③③① |----|
②口口① |②---|
口口口口 |③---|

不確定度: 0

最終更新:2014年12月11日 23:13