枝に結ぶ願い
Akhuta

BASIC

Level: 4
BPM: 204
Notes: 310

1
口口口口 |----|
口口口口 |----|
口口口口 |----|
口口口口 |----|
2
①口口口 |①---|
口口口口 |----|
口口口口 |----|
口口口口 |----|
3
口口口口 |①---|
口①口口 |----|
口口口口 |----|
口口口口 |----|
4
口口口口 |①---|
口口口口 |----|
口口①口 |----|
口口口口 |----|
5
口口口口 |①---|
口口口口 |----|
口口口口 |----|
口口口① |----|
6
口口口口 |①---|
口口口口 |----|
口②口口 |②---|
口口①口 |----|
7
口②口口 |①---|
口口①口 |----|
口口口口 |②---|
口口口口 |----|
8
口口口口 |①---|
口口口口 |----|
②口口口 |②---|
口口口① |----|
9
②口口口 |①---|
口口口① |----|
口口口口 |②---|
口口口口 |----|
10
口口口口 |①---|
口口①口 |----|
口口口口 |----|
口口口口 |----|
11
口口口口 |①---|
口①口口 |----|
口口口口 |----|
口口口口 |----|
12
口口口口 |①---|
口口口口 |----|
口口①口 |----|
口口口口 |----|
13
口口口口 |①---|
口口口口 |----|
口①口口 |----|
口口口口 |----|
14
口口口口 |①---|
②④口口 |②---|
①③口口 |③---|
口口口口 |④---|
15
口口口口 |①---|
口口②④ |②---|
口口①③ |③---|
口口口口 |④---|
16
口口口口 |①---|
口口口口 |②---|
口口口口 |③---|
①②③④ |④---|
17
①②③④ |①---|
口口口口 |②---|
口口口口 |③---|
口口口口 |④---|
18
口口口口 |①---|
口①②口 |②---|
口③④口 |③---|
口口口口 |④---|
19
口口口口 |①---|
③口口③ |②---|
口口口口 |③---|
口①②口 |----|
20
口口②① |①---|
口③口口 |②---|
口口④口 |③---|
口口口口 |④---|
21
口口口口 |①---|
口③④口 |②---|
②口口口 |③---|
口①口口 |④---|
22
口口口口 |①---|
口口口① |②---|
口④口② |③---|
口口③口 |④---|
23
口口③④ |①---|
①②口口 |②---|
口口口口 |③---|
口口口口 |④---|
24
④口口口 |①---|
口③口① |②---|
口口②口 |③---|
口口口口 |④---|
25
口①②口 |①---|
口③③口 |②---|
口口口口 |③---|
口口口口 |----|
26
口口口口 |①---|
口口口口 |----|
①口口① |----|
口口口口 |----|
27
口口口口 |①---|
①口口① |----|
口口口口 |----|
口口口口 |----|
28
口口口口 |①---|
口①①口 |----|
口①①口 |----|
口口口口 |----|
29
口口口口 |----|
口口口口 |----|
口口口口 |----|
口口口口 |----|
30
口口口口 |----|
口口口口 |----|
口口口口 |----|
口口口口 |----|
31
口口口口 |①---|
口口口口 |----|
口口①口 |----|
口口口口 |----|
32
口口口口 |----|
口口①口 |----|
口口口口 |①---|
口口口口 |----|
33
口口口口 |----|
口口口口 |----|
口口口口 |----|
口口口口 |----|
34
口口口口 |①---|
口口口口 |----|
口①口口 |----|
口口口口 |----|
35
口口口口 |----|
口①口口 |----|
口口口口 |①---|
口口口口 |----|
36
口口口口 |----|
口口口口 |----|
口口口口 |----|
口口口口 |----|
37
口口口口 |----|
口口口口 |----|
口口口口 |----|
口口口口 |----|
38
口口口口 |①---|
口口口口 |②---|
①②③④ |③---|
口口口口 |④---|
39
口口口口 |①---|
①②③④ |②---|
口口口口 |③---|
口口口口 |④---|
40
口口④口 |①---|
口③口口 |②---|
口口②口 |③---|
口①口口 |④---|
41
口①口口 |①---|
口口②口 |②---|
口③口口 |③---|
口口④口 |④---|
42
口口口口 |①---|
口口口口 |----|
①口口① |----|
口口口口 |----|
43
口口口口 |①---|
①口口① |----|
口口口口 |----|
口口口口 |----|
44
口口口口 |①---|
口①①口 |----|
口口口口 |----|
口口口口 |----|
45
口口口口 |①---|
口口口口 |----|
口①①口 |----|
口口口口 |----|
46
口口口口 |①---|
口口口口 |②---|
④③口口 |③---|
口口②① |④---|
47
口口③④ |①---|
①②口口 |②---|
口口口口 |③---|
口口口口 |④---|
48
①②口口 |①---|
口口③④ |②---|
口口口口 |③---|
口口口口 |④---|
49
口口口口 |①---|
口口口口 |②---|
口口②① |③---|
④③口口 |④---|
50
口④口口 |①---|
口口③口 |②---|
口②口口 |③---|
口口①口 |④---|
51
口口①口 |①---|
口②口口 |②---|
口口③口 |③---|
口④口口 |④---|
52
口口口口 |①---|
口④③口 |②---|
口口口② |③---|
口口口① |④---|
53
口口口口 |①---|
口口口口 |②---|
①口口口 |③---|
②④③口 |④---|
54
口口口口 |①---|
口①①口 |----|
口口口口 |----|
口口口口 |----|
55
口口口口 |①---|
①口口① |----|
①口口① |②---|
口②口口 |----|
56
口口口口 |----|
口口口口 |----|
口口口口 |①---|
口口①口 |----|
57
口口口口 |----|
口口口口 |----|
口口①口 |①---|
口口口口 |----|
58
口口口口 |①---|
口口②口 |----|
口①口口 |②---|
口口口口 |----|
59
口②口口 |①---|
①口③① |②---|
口④口口 |③---|
口口口口 |④---|
60
口口口④ |①---|
口口口③ |②---|
口口口② |③---|
口①①口 |④---|
61
口①②口 |①---|
口④③口 |②---|
口口口口 |③---|
口口口口 |④---|
62
③④口口 |①---|
口口口口 |②---|
②口口口 |③---|
①口口① |④---|
63
口口③② |①---|
口口①口 |----|
口口口口 |②---|
口口口口 |③---|
64
口口口口 |①---|
口①口口 |----|
口③②口 |②---|
口口口口 |③---|
65
口口口口 |①---|
口①①口 |----|
②口口② |②---|
口口口口 |----|
66
①口口① |①---|
口口口口 |----|
口口口口 |②---|
口②②口 |----|
67
口②口口 |①---|
①口③① |②---|
口④口口 |③---|
口口口口 |④---|
68
口口口④ |①---|
口口口③ |②---|
口口口② |③---|
口①①口 |④---|
69
口①②口 |①---|
口④③口 |②---|
口口口口 |③---|
口口口口 |④---|
70
④口口口 |①---|
③口口口 |②---|
②口口口 |③---|
①口口① |④---|
71
口口口口 |①---|
口②①口 |----|
口②①口 |②---|
口口口口 |----|
72
②口口② |①---|
口口口口 |----|
口口口口 |②---|
①口口① |----|
73
口口口口 |----|
口②①口 |①---|
口口③口 |②---|
口口口口 |③---|
74
④④④④ |①---|
口口口口 |②---|
口①口口 |③---|
口③②口 |④---|
75
口口口口 |----|
口②口口 |①---|
①③口口 |②---|
口口口口 |③---|
76
口口口口 |①---|
口口①③ |②---|
口口②④ |③---|
口口口口 |④---|
77
口口口口 |①---|
①②③口 |--②-|
口口口口 |----|
口口口口 |③---|
78
口口口口 |①---|
口口口口 |--②-|
口③②① |----|
口口口口 |③---|
79
口①②口 |--①-|
口④③口 |②---|
口⑤口口 |③-④-|
口口口口 |--⑤-|
80
口口口口 |①---|
口口口口 |②---|
口口①口 |----|
②口口② |----|
81
口②口口 |①---|
①口③① |②---|
口④口口 |③---|
口口口口 |④---|
82
口口口④ |①---|
口口口③ |②---|
口口口② |③---|
口①①口 |④---|
83
口①②口 |①---|
口④③口 |②---|
口口口口 |③---|
口口口口 |④---|
84
④口口口 |①---|
③口口口 |②---|
②口口口 |③---|
①口口① |④---|
85
口①①口 |①---|
口②②口 |----|
口口口口 |②---|
口口口口 |----|
86
②②②② |①---|
口口口口 |----|
口①①口 |②---|
口口口口 |----|
87
口口口口 |----|
①口口① |----|
口口口口 |①---|
口口口口 |----|
88
口口口② |①---|
口口口口 |----|
①口口① |②---|
口口口口 |----|
89
口口②口 |①---|
口口口口 |----|
口口①口 |②---|
口口口口 |----|
90
口②口口 |①---|
口口口口 |----|
口①口口 |②---|
口口口口 |----|
91
②口口口 |①---|
口口口口 |----|
①口口口 |②---|
口口口口 |----|
92
口口口口 |①---|
口②口① |----|
口口口口 |②---|
口口口口 |----|
93
口口口口 |①---|
②口①口 |----|
口口口口 |②---|
口口口口 |----|
94
口口口口 |①---|
口口口口 |----|
①口②口 |②---|
口口口口 |----|
95
口口口口 |①---|
口口口口 |----|
口①口② |②---|
口口口口 |----|
96
口①②口 |①---|
口③④口 |②---|
口口口口 |③---|
口口口口 |④---|
97
口口口口 |①---|
口口口口 |②---|
口①②口 |③---|
口③④口 |④---|
98
口口口④ |①---|
③口口口 |②---|
口口口② |③---|
①口口口 |④---|
99
①口口口 |①---|
口口口② |②---|
③口口口 |③---|
口口口④ |④---|
100
口口口口 |①---|
口②②口 |----|
口①①口 |----|
口口口口 |--②-|
101
①口口① |----|
口口口口 |①---|
口口口口 |----|
口口口口 |----|
102
口口口口 |----|
口口口口 |----|
口口口口 |----|
口口口口 |----|
103
口①①口 |①---|
口②②口 |----|
口口口口 |----|
口口口口 |--②-|
104
口口口口 |----|
口口口口 |①---|
①口口① |----|
口口口口 |----|

不確定度: 0

最終更新:2014年12月11日 23:11