枝に結ぶ願い
Akhuta

ADVANCED

Level: 8
BPM: 204
Notes: 616

1
口口口口 |----|
口口口口 |----|
口口口口 |----|
口口口口 |----|
2
口口口口 |①---|
①口口口 |----|
口②口口 |②---|
口口口口 |----|
3
口口口口 |①---|
口口①口 |----|
口口口② |②---|
口口口口 |----|
4
口口口口 |①---|
口口口① |----|
口口②口 |②---|
口口口口 |----|
5
口口口口 |①---|
口①口口 |----|
②口口口 |②---|
口口口口 |----|
6
口口②① |①---|
口口②① |②---|
③③口口 |③---|
④④口口 |④---|
7
①②口口 |①---|
①②口口 |②---|
口口③③ |③---|
口口④④ |④---|
8
口口④④ |①---|
口口③③ |②---|
①②口口 |③---|
①②口口 |④---|
9
④④口口 |①---|
③③口口 |②---|
口口②① |③---|
口口②① |④---|
10
口口口口 |①---|
口口口口 |----|
口口②口 |②---|
口①口口 |----|
11
口口②口 |①---|
口①口口 |----|
口口口口 |②---|
口口口口 |----|
12
口口口口 |①---|
口口口口 |----|
②②口口 |②---|
口口①① |----|
13
②②口口 |①---|
口口①① |----|
口口口口 |②---|
口口口口 |----|
14
口口口口 |①---|
②④②④ |②---|
口口口口 |③---|
①①③③ |④---|
15
②口口④ |①---|
口口口口 |②---|
口④②口 |③---|
①①③③ |④---|
16
口②④口 |①---|
口④②口 |②---|
口口口口 |③---|
①①③③ |④---|
17
②口口④ |①---|
④口口② |②---|
口口口口 |③---|
①①③③ |④---|
18
口②②口 |①---|
口④④口 |②---|
口①①口 |③---|
③口口③ |④---|
19
②口口② |①---|
口口口口 |②---|
口口口口 |③---|
③①①③ |----|
20
口①口口 |①---|
①口口④ |②---|
口③②② |③---|
口③口④ |④---|
21
口口②② |①---|
①口④④ |②---|
①③口口 |③---|
③口口口 |④---|
22
①③④④ |①---|
③口口口 |②---|
①口口② |③---|
口口口② |④---|
23
口口口口 |①---|
口③②口 |②---|
①③④④ |③---|
口①②口 |④---|
24
①口④口 |①---|
①③口④ |②---|
③口口口 |③---|
口口②② |④---|
25
③口口③ |①---|
口口口口 |②---|
口口②② |③---|
①①口口 |----|
26
口口口口 |①---|
口②口口 |----|
①口口口 |②---|
口口口口 |----|
27
口口口口 |①---|
口口口② |----|
口口①口 |②---|
口口口口 |----|
28
①口口口 |①---|
口②口口 |②---|
③口口口 |③---|
口④口口 |④---|
29
口口口① |①---|
口口②口 |②---|
口口口③ |③---|
口口④口 |④---|
30
口口口口 |----|
口口口口 |----|
口口口口 |----|
口口口口 |----|
31
口口口口 |----|
口口口口 |----|
口口口口 |①---|
口①口口 |----|
32
口口③口 |①---|
口口②口 |②---|
口口①口 |③---|
口口口口 |----|
33
口①口口 |①---|
口②口口 |②---|
口口口口 |----|
口口口口 |----|
34
口口口口 |----|
口口口口 |----|
口口②口 |①---|
口①口口 |②---|
35
口③②口 |①---|
口①口口 |②---|
口口口口 |③---|
口口口口 |----|
36
②口口② |①---|
口口口口 |②---|
①口口① |----|
口口口口 |----|
37
口口口口 |----|
口口口口 |----|
口口口口 |----|
口口口口 |----|
38
口⑤口⑤ |①---|
口③口④ |②-③-|
口口口② |④---|
口口口① |⑤---|
39
②口④口 |①---|
口口③口 |②---|
口③②口 |③---|
④口①口 |④---|
40
口⑤口⑤ |①---|
口③口④ |②-③-|
口口口② |④---|
口口口① |⑤---|
41
④口④口 |①---|
口③③口 |②---|
口口②口 |③---|
②口①口 |④---|
42
口②口口 |①---|
口口口口 |----|
口口口口 |----|
口①口口 |②---|
43
口口①口 |①---|
③口口口 |--②-|
②③口口 |----|
口②口口 |③---|
44
①口口② |①---|
口①②③ |--②-|
口口③口 |----|
口口口口 |③---|
45
口口口口 |①---|
口口口口 |--②-|
口③③① |----|
②口①② |③---|
46
①口口① |①---|
口②③口 |----|
口④口口 |--②-|
口口口口 |③-④-|
47
口口口口 |①---|
口口口④ |②---|
口口①③ |③---|
口口口② |④---|
48
③①②口 |①---|
口口口口 |--②-|
口口口口 |----|
口②①③ |③---|
49
④口口① |①---|
③口口口 |②---|
②口口口 |③---|
①口口口 |④---|
50
口①①口 |①---|
口②③口 |----|
口④口口 |--②-|
口口口口 |③-④-|
51
口口口口 |①---|
口口口④ |②---|
口口①③ |③---|
口口口② |④---|
52
③①②口 |①---|
口口口口 |--②-|
口口口口 |----|
口②①③ |③---|
53
口②②① |--①-|
②口口② |----|
口口口口 |②---|
①口口口 |----|
54
口口口口 |①---|
口③②口 |--②-|
口①③口 |----|
口②①口 |③---|
55
①口口① |①---|
口口口口 |----|
口②口口 |②---|
口口口口 |----|
56
口②口口 |①---|
口口①口 |----|
口口口口 |②---|
口口口口 |----|
57
口口口口 |①---|
口②②口 |----|
口口口口 |②---|
①口口① |----|
58
③口③口 |①---|
④口口口 |②---|
口口口② |③---|
口①口① |④---|
59
口口④① |①---|
口⑤口① |②-③-|
①口⑥口 |--④-|
①③②口 |⑤-⑥-|
60
口③口口 |①---|
③口⑤④ |②-③-|
口⑥口口 |--④-|
①口口② |⑤-⑥-|
61
②口③④ |①-②-|
⑤⑤口口 |--③-|
①口④③ |--④-|
口口口口 |--⑤-|
62
口⑤③口 |①---|
口口⑥③ |②-③-|
口口④口 |--④-|
②口口① |⑤-⑥-|
63
口⑤③口 |①---|
口口⑥③ |②-③-|
口口④口 |--④-|
②①①口 |⑤-⑥-|
64
口口③口 |①---|
口口⑥③ |②-③-|
口⑤④口 |--④-|
②①①口 |⑤-⑥-|
65
口①⑥② |①-②-|
①口口⑥ |③---|
③口口④ |④-⑤-|
⑤③④口 |⑥---|
66
口①口② |①-②-|
①⑤④口 |③---|
③⑦⑥口 |④-⑤-|
口③口口 |⑥-⑦-|
67
①④口口 |①---|
①口⑤口 |②-③-|
口⑥口① |--④-|
口②③① |⑤-⑥-|
68
口口③口 |①---|
④⑤口③ |②-③-|
口口⑥口 |--④-|
②口口① |⑤-⑥-|
69
④③口② |①-②-|
口口⑤⑤ |--③-|
③④口① |--④-|
口口口口 |--⑤-|
70
口口口③ |①-②-|
口口口口 |③---|
⑥⑦口口 |④-⑤-|
①②⑤④ |⑥-⑦-|
71
口①①口 |①---|
口②②口 |--②-|
口口口口 |----|
③口口③ |③---|
72
口口口口 |①---②-|
口⑥⑤④ |--③---|
①②③口 |④---⑤-|
口口口口 |--⑥---|
73
①①①① |----|
口口口② |①---|
③口口口 |②-③-|
⑤口口④ |④-⑤-|
74
③③③③ |--①-|
口②口口 |②-③-|
口口①口 |----|
口④④口 |④---|
75
口⑤⑤口 |----|
①②口① |①---|
①口③① |②-③-|
口④口口 |④-⑤-|
76
口口口口 |--①-|
口④④③ |②-③-|
②口口口 |----|
口口口① |④---|
77
口①②口 |①---|
③口口③ |--②-|
③口口③ |----|
口②①口 |③---|
78
①口口② |①---|
③口口③ |--②-|
③口口③ |----|
②口口① |③---|
79
③④④③ |--①-|
口①①口 |②---|
口②②口 |③-④-|
口⑤⑤口 |--⑤-|
80
口口口口 |①---|
口⑥⑤③ |②-③-|
②④⑦口 |④-⑤-|
①口口① |⑥-⑦-|
81
①口④口 |①---|
①⑤口口 |②-③-|
口口⑥① |--④-|
口③②① |⑤-⑥-|
82
口③口口 |①---|
③口⑤④ |②-③-|
口⑥口口 |--④-|
①口口② |⑤-⑥-|
83
②口③④ |①-②-|
⑤⑤口口 |--③-|
①口④③ |--④-|
口口口口 |--⑤-|
84
③口口口 |①-②-|
口口口口 |③---|
口口⑦⑥ |④-⑤-|
④⑤②① |⑥-⑦-|
85
口①①口 |①---|
口②②口 |--②-|
③口口③ |----|
口口口口 |③---|
86
②②②② |①---|
口口口口 |----|
口口口口 |②---|
①口口① |----|
87
口口口口 |----|
①①①① |----|
口口口口 |①---|
口口口口 |----|
88
口口③③ |①---|
口口口口 |--②-|
口②口口 |----|
①①①① |③---|
89
①口口口 |----|
口口②口 |①---|
③口口口 |②---|
口口口口 |③---|
90
口口③③ |①---|
口②口口 |--②-|
口口口口 |----|
口口①① |③---|
91
口⑦口⑥ |--①-|
口⑤口④ |②-③-|
②口③口 |④-⑤-|
口口①口 |⑥-⑦-|
92
口口③③ |①---|
口口口口 |--②-|
口②口口 |----|
口口口① |③---|
93
口口口口 |----|
口①口口 |①---|
口口②口 |②---|
口③口口 |③---|
94
①口口① |①---|
②口口口 |----|
口口口口 |----|
口口口口 |②---|
95
口③③口 |①---|
口口口口 |--②-|
口①②口 |----|
口口口口 |③---|
96
口口口① |①-②③|
②⑧⑪⑤ |④-⑤⑥|
③⑨⑫⑥ |⑦-⑧⑨|
④⑩口⑦ |⑩-⑪⑫|
97
⑨⑤口⑧ |①-②③|
②口口口 |④-⑤-|
③⑦口口 |⑥-⑦-|
④口①⑥ |⑧-⑨-|
98
⑧④③⑦ |①-②-|
④⑧⑦③ |③-④-|
②⑥⑤① |⑤-⑥-|
⑥②①⑤ |⑦-⑧-|
99
口④③⑦ |①-②-|
④口⑦③ |③-④-|
②⑥⑤① |⑤-⑥-|
⑥②①⑤ |⑦---|
100
②口③口 |①---|
口②口③ |②-③-|
④口⑤① |--④-|
口④①⑤ |--⑤-|
101
口①口② |--①-|
①口②口 |②---|
口口口口 |----|
口③口口 |③---|
102
口口口口 |----|
口②口口 |①---|
口口①口 |----|
口口口口 |②---|
103
①②②① |①---|
口⑤⑤口 |②-③-|
口④④口 |--④-|
口③③口 |--⑤-|
104
②口口② |--①-|
口口口口 |②---|
口口口口 |----|
①口口① |----|

不確定度: 0

最終更新:2014年12月11日 23:11