Timberwolves
S-C-U

BASIC

Level: 5
BPM: 190
Notes: 339

1
口口口口 |----|
口口口口 |----|
口口口口 |----|
口口口口 |----|
2
口口口口 |①---|
口①①口 |----|
口①①口
口口口口

口口口口
口②②口
口②②口 |----|
口口口口 |--②-|
3
口口口口 |--①-|
①②②① |----|
①②②① |----|
口口口口 |--②-|
4
口口口口 |----|
①②②① |----|
①②②① |--①-|
口口口口 |--②-|
5
口口口口 |----|
口口口口 |----|
口口口口 |----|
口口口口 |----|
6
口口口口 |①---|
口①①口 |----|
口①①口
口口口口

口口口口
口②②口
口②②口 |----|
口口口口 |--②-|
7
口口口口 |--①-|
①②②① |----|
①②②① |----|
口口口口 |--②-|
8
口口口口 |----|
①②②① |----|
①②②① |--①-|
口口口口 |--②-|
9
口口口口 |----|
口口口口 |----|
口口口口 |----|
口口口口 |----|
10
口口①① |①---|
口口口② |②---|
口口口③ |③---|
口⑤⑤④ |④-⑤-|
11
口口口口 |--①-|
③①①口 |----|
②口口口 |②---|
口④④口 |③-④-|
12
口③③口 |----|
口④④② |①---|
口口口① |②-③-|
口口口口 |--④-|
13
口口口口 |----|
口口口口 |①---|
口口口口 |②---|
③②①口 |③---|
14
①①口口 |①---|
②口口口 |②---|
③口口口 |③---|
④⑤⑤口 |④-⑤-|
15
口口口口 |--①-|
口①①③ |----|
口口口② |②---|
口④④口 |③-④-|
16
口③③口 |----|
②④④口 |①---|
①口口口 |②-③-|
口口口口 |--④-|
17
口口口口 |----|
口口口口 |①---|
口口口口 |②---|
口①②③ |③---|
18
口口口口 |①---|
①口口口 |②---|
口②③④ |③---|
口口口口 |④---|
19
口口口口 |----|
口①口口 |----|
②口口口 |①---|
口口口口 |②---|
20
口口口口 |①---|
口口口③ |②---|
口口②口 |③---|
口①口口 |----|
21
口口口口 |----|
口口口口 |----|
口口口口 |----|
口口口口 |----|
22
口口口① |①---|
④口②口 |②---|
口③口口 |③---|
口口口口 |④---|
23
口①口口 |----|
口口口口 |----|
口口口口 |----|
口口口口 |①---|
24
口口①口 |①---|
口②③口 |②---|
口④口口 |③---|
口口口口 |④---|
25
口口口口 |①---|
口口口口 |----|
口口①口 |----|
口口口口 |----|
26
①口口口 |①---|
口②口口 |②---|
口口③④ |③---|
口口口④ |④---|
27
口口口口 |----|
口口②① |----|
口口口口 |①---|
口口口口 |②---|
28
口口口口 |①---|
口口口口 |②---|
口口①口 |----|
②②口口 |----|
29
口口口口 |----|
口口口口 |----|
口口口口 |----|
口口口口 |----|
30
口口口① |①---|
口口②口 |②---|
④③口口 |③---|
④口口口 |④---|
31
口口口口 |----|
口口口口 |----|
口口口口 |----|
口口口① |①---|
32
口⑤⑤口 |①---|
③④④口 |②---|
口②①口 |③-④-|
口口口口 |--⑤-|
33
口口口口 |----|
口口口口 |----|
口口口口 |----|
口口口口 |----|
34
口口口口 |①---|
口①①口 |----|
口①①口 |----|
口口口口 |----|
35
口口口口 |①---|
口口③口 |--②-|
口②①口 |----|
口口口口 |③---|
36
①口口口 |①---|
口口口⑤ |②-③-|
口③②口 |--④-|
口④口口 |⑤---|
37
口口口口 |----|
口口口口 |----|
口口口口 |----|
口口口口 |----|
38
口口口口 |①---|
口①①口 |----|
口口口口 |----|
口口口口 |----|
39
口口口① |①---|
口口②口 |②---|
口③口口 |③---|
④口口口 |④---|
40
口口口口 |①---|
口口口口 |②---|
口④③口 |③---|
口②①口 |④---|
41
口口口口 |①---|
②口口① |②---|
口口口口 |----|
口口口口 |----|
42
口口口④ |①---|
口①①③ |②---|
口①①② |③---|
口口口口 |④---|
43
④口口口 |①---|
③口口口 |②---|
②口口口 |③---|
①口口口 |④---|
44
口口口④ |①---|
口口口③ |②---|
口口口② |③---|
口口口① |④---|
45
④口口口 |①---|
③口口口 |②---|
②口口口 |③---|
①口口口 |④---|
46
口口口口 |①---|
口口口口 |②---|
④③口口 |③---|
口口②① |④---|
47
口口口口 |①---|
④③口口 |②---|
口口②① |③---|
口口口口 |④---|
48
口①①口 |①---|
口口口口 |----|
口口口口 |----|
口口口口 |----|
49
口口口口 |①---|
口口口口 |----|
口①①口 |----|
口口口口 |----|
50
口口④② |①---|
口口③① |②---|
口口口口 |③---|
口口口口 |④---|
51
②④口口 |①---|
①③口口 |②---|
口口口口 |③---|
口口口口 |④---|
52
口口口口 |①---|
口④③口 |②---|
口②①口 |③---|
口口口口 |④---|
53
①口口① |①---|
②口口② |②---|
③口口③ |③---|
④口口④ |④---|
54
口②②口 |①---|
口①①口 |--②-|
口口口口 |----|
口口口口 |----|
55
口口口口 |①---|
③口口② |----|
口①①口 |②---|
口口口口 |③---|
56
口口④口 |①---|
口口③口 |②---|
口②口口 |③---|
口口①口 |④---|
57
④口口④ |①---|
③口口③ |②---|
②口口② |③---|
①口口① |④---|
58
口④②口 |①---|
口③①口 |②---|
口口口口 |③---|
口口口口 |④---|
59
④口口② |①---|
③口口① |②---|
口口口口 |③---|
口口口口 |④---|
60
口口口口 |①---|
口④③口 |②---|
口②①口 |③---|
口口口口 |④---|
61
①口口① |①---|
②口口② |②---|
③口口③ |③---|
④口口④ |④---|
62
②②②② |①---|
口①①口 |--②-|
口口口口 |----|
口口口口 |----|
63
口口口口 |①---|
③口口② |----|
口①①口 |②---|
口口口口 |③---|
64
口④口口 |①---|
口口③口 |②---|
口②口口 |③---|
口口①口 |④---|
65
④口口④ |①---|
③口口③ |②---|
②口口② |③---|
①口口① |④---|
66
口①①口 |①---|
口口口② |----|
口口口口 |②---|
口口口口 |----|
67
口口口口 |①---|
口口口口 |----|
口口口① |②---|
口口口② |----|
68
口口⑤口 |①--②|
口④③口 |--③-|
口②①口 |-④--|
口口口口 |⑤---|
69
口口口口 |----|
口口口口 |----|
口口口口 |----|
口口口口 |----|
70
口口①① |①---|
口口口② |②---|
口口口③ |③---|
口⑤⑤④ |④-⑤-|
71
口口口口 |--①-|
③①①口 |----|
②口口口 |②---|
口④④口 |③-④-|
72
口③③口 |----|
口④④② |①---|
口口口① |②-③-|
口口口口 |--④-|
73
口口口口 |----|
口口口口 |①---|
口口口口 |②---|
③②①口 |③---|
74
①①口口 |①---|
②口口口 |②---|
③口口口 |③---|
④⑤⑤口 |④-⑤-|
75
口口口口 |--①-|
口①①③ |----|
口口口② |②---|
口④④口 |③-④-|
76
口③③口 |----|
②④④口 |①---|
①口口口 |②-③-|
口口口口 |--④-|
77
口口口口 |----|
口口③口 |①---|
口②口口 |②---|
①口口口 |③---|
78
①①②② |①---|
口口口口 |--②-|
口口口口 |----|
③③口口 |③---|
79
口口口口 |--①-|
②口口② |----|
口口口口 |②---|
口口①① |----|
80
口口口口 |----|
口①①口 |①---|
口①①口 |----|
口口口口 |----|

不確定度: 0

最終更新:2014年12月11日 23:09