Timberwolves
S-C-U

ADVANCED

Level: 8
BPM: 190
Notes: 515

1
口口口口 |----|
口口口口 |----|
口口口口 |----|
口口口口 |----|
2
口口口口 |①---|
口①①口 |----|
口①①口 |----|
②口口② |--②-|
3
①口口① |--①-|
口②②口 |----|
口②②口 |----|
口口口口 |--②-|
4
①口口① |----|
口口口口 |----|
口口口口 |--①-|
②口口② |--②-|
5
口口口口 |----|
口口口口 |----|
口口口口 |----|
口口口口 |----|
6
口口口口 |①---|
口①①口 |②---|
口①①口
②口口口

口口口口
④口⑤⑤
③口口口 |③---|
口口口口 |④-⑤-|
7
口口①① |--①-|
口口④④ |----|
③口口口 |②---|
②口口口 |③-④-|
8
口口④④ |①---|
口③⑤⑤ |②---|
口②口口 |③-④-|
口①口口 |--⑤-|
9
④口口口 |①---|
③口口口 |②---|
②口口口 |③---|
①口口口 |④---|
10
口口口口 |①---|
口①①口 |②---|
口①①口
口口口②

口口口口
⑤⑤口④
口口口③ |③---|
口口口口 |④-⑤-|
11
①①口口 |--①-|
④④口口 |----|
口口③口 |②---|
口口②口 |③-④-|
12
③③口口 |----|
④④口口 |①---|
口口口② |②-③-|
口口口① |--④-|
13
口口口口 |----|
口口口③ |①---|
口口口② |②---|
口口口① |③---|
14
口口⑤⑤ |①---|
④①①口 |②---|
③①①口 |③---|
②口口口 |④-⑤-|
15
口口④④ |--①-|
口口①① |----|
口③口口 |②---|
口②口口 |③-④-|
16
口口⑤⑤ |----|
④口③③ |①---|
②口口口 |②-③-|
①口口口 |④-⑤-|
17
口口口口 |----|
口口口口 |①---|
口口口口 |②---|
口③②① |③---|
18
⑤⑥口① |①-②-|
口口②口 |③-④-|
口③④⑦ |--⑤-|
口口口口 |⑥-⑦-|
19
口口口口 |--①-|
口②③⑥ |--②-|
口④⑤⑥ |③-④-|
口口①① |⑤-⑥-|
20
口口⑤⑤ |--①-|
①口④口 |②-③-|
②口口口 |--④-|
③口口口 |--⑤-|
21
口口口口 |----|
口口口② |①---|
口口口① |----|
口口口口 |②---|
22
①口⑥⑤ |①-②-|
①②口口 |③-④-|
⑦④③口 |--⑤-|
口口口口 |⑥-⑦-|
23
口口④口 |--①-|
口口④口 |----|
口③②口 |--②-|
①①口口 |③-④-|
24
⑤口口⑤ |--①-|
口口口③ |②-③-|
②④④① |--④-|
口口口口 |--⑤-|
25
口口口口 |----|
口口口口 |--①-|
口口口① |--②-|
口口②② |----|
26
⑥口口① |①-②-|
⑤口②① |③-④-|
口③④⑦ |--⑤-|
口口口口 |⑥-⑦-|
27
⑥⑥口口 |--①-|
口④⑤口 |--②-|
口②③口 |③-④-|
口口①① |⑤-⑥-|
28
口口口口 |--①-|
②口口① |②-③-|
④口口口 |--④-|
⑤⑤口③ |--⑤-|
29
口口口口 |----|
口口口③ |①---|
口口口② |②---|
口口口① |③---|
30
①口口⑥ |①-②-|
①②口⑤ |③-④-|
⑦④③口 |--⑤-|
口口口口 |⑥-⑦-|
31
口口口口 |--①-|
口口④口 |----|
口③②口 |--②-|
①①口口 |③-④-|
32
④口③④ |--①-|
口口口③ |②-③-|
②口口① |--④-|
⑤口口⑤ |--⑤-|
33
口口口口 |----|
口口①口 |--①-|
②③④⑤ |②-③-|
口口口口 |④-⑤-|
34
口①口口 |①---|
①口口口 |----|
口口口口 |----|
口口口口 |----|
35
口口口口 |①---|
口口③口 |--②-|
口②①口 |----|
口口口口 |③---|
36
①口口口 |①---|
口口口⑤ |②-③-|
口③②口 |--④-|
口④口口 |⑤---|
37
①口口口 |①---|
口②口口 |--②-|
口口③口 |----|
口口口口 |③---|
38
口①口口 |①---|
口口口口 |----|
口口口口 |----|
口口口口 |----|
39
口口口① |①---|
口口②口 |②---|
口③口口 |③---|
④口口口 |④---|
40
口口口口 |①-②-|
⑧口口⑦ |③-④-|
④⑥⑤③ |⑤-⑥-|
口②①口 |⑦-⑧-|
41
②④③① |①-②-|
口口口口 |③-④-|
口口口口 |----|
口口口口 |----|
42
口口口口 |①---|
口口口口 |----|
②①①口 |②---|
口口口口 |----|
43
③口口④ |①---|
①口②口 |--②-|
口口①口 |③---|
口口口口 |④---|
44
口口口口 |①---|
口口口① |②-③-|
④口③② |④-⑤-|
①口⑤⑥ |⑥---|
45
②口口口 |①---|
①口口口 |----|
口口口口 |②---|
口口口口 |----|
46
口①①口 |①-②-|
口口②口 |③-④-|
⑦③口⑧ |⑤-⑥-|
⑤口④⑥ |⑦-⑧-|
47
①①①口 |①-②-|
⑦③②⑧ |③-④-|
口口④口 |⑤-⑥-|
⑤口口⑥ |⑦-⑧-|
48
口①①① |①-②-|
⑦口②⑧ |③-④-|
⑤③口⑥ |⑤-⑥-|
口口④口 |⑦-⑧-|
49
口①①口 |①---|
口口口口 |----|
口口口口 |----|
口口口口 |----|
50
口口③① |①-②-|
口口④② |③-④-|
口口口口 |⑤-⑥-|
⑤⑥⑦⑧ |⑦-⑧-|
51
①③口口 |①-②-|
②④口口 |③-④-|
⑧⑦⑥⑤ |⑤-⑥-|
口口口口 |⑦-⑧-|
52
口口④③ |①-②-|
口口②① |③-④-|
口口口口 |⑤-⑥-|
⑤⑥⑦⑧ |⑦-⑧-|
53
①②口口 |①-②-|
③④口口 |③-④-|
口口⑥⑤ |⑤-⑥-|
⑧⑦口口 |⑦-⑧-|
54
①②③④ |①-②-|
口口口④ |③-④-|
口口口口 |--⑤-|
口⑦⑥⑤ |⑥-⑦-|
55
⑥⑤④③ |①---|
口②口口 |--②-|
口口口口 |③-④-|
①口口口 |⑤-⑥-|
56
口口口口 |①-②-|
⑧⑥④② |③-④-|
口口口口 |⑤-⑥-|
⑦⑤③① |⑦-⑧-|
57
口⑧口口 |①-②-|
口口⑦口 |③-④-|
③④②① |⑤-⑥-|
⑥口⑤口 |⑦-⑧-|
58
③口口① |①-②-|
口口口口 |③-④-|
④口口② |⑤-⑥-|
⑧⑦⑥⑤ |⑦-⑧-|
59
口③①口 |①-②-|
⑧⑦⑥⑤ |③-④-|
口④②口 |⑤-⑥-|
口口口口 |⑦-⑧-|
60
⑧⑦口口 |①-②-|
口口⑥⑤ |③-④-|
口口④③ |⑤-⑥-|
口口②① |⑦-⑧-|
61
口口②① |①-②-|
③口口④ |③-④-|
口⑤口⑧ |⑤-⑥-|
⑦口⑥口 |⑦-⑧-|
62
④③②① |①-②-|
④口口口 |③-④-|
口口口口 |--⑤-|
口⑦⑥⑤ |⑥-⑦-|
63
口口口口 |①---|
③④⑤⑥ |--②-|
口口②口 |③-④-|
①口口口 |⑤-⑥-|
64
①②④③ |①-②-|
口口口口 |③-④-|
⑤⑥口口 |⑤-⑥-|
口口⑧⑦ |⑦-⑧-|
65
⑧④③口 |①-②-|
口②①⑦ |③-④-|
⑥口⑤口 |⑤-⑥-|
口口口口 |⑦-⑧-|
66
口口口口 |①---|
口①①④ |②---|
口口口③ |③---|
口①①② |④---|
67
④③②① |①---|
口口口口 |②---|
口口口口 |③---|
口口口口 |④---|
68
⑤⑤⑤⑤ |①--②|
②④③① |--③-|
②④③① |-④--|
②④③① |⑤---|
69
口口口口 |--①-|
口口②① |②-③-|
③④口口 |④-⑤-|
⑦口⑤⑥ |⑥-⑦-|
70
口③②① |①---|
口⑤④① |②-③-|
⑦口⑥口 |④-⑤-|
⑦①口口 |⑥-⑦-|
71
⑥口口① |--①-|
⑥口口① |--②-|
口④⑤口 |③-④-|
口②③口 |⑤-⑥-|
72
⑥②①口 |--①-|
⑥④③口 |②-③-|
口口口⑤ |④-⑤-|
口口口⑤ |--⑥-|
73
口口②① |--①-|
口④③口 |②-③-|
⑥⑤口口 |④-⑤-|
⑦口口口 |⑥-⑦-|
74
口口口① |①---|
口口⑥① |②-③-|
⑦⑤④口 |④-⑤-|
⑦③②口 |⑥-⑦-|
75
⑥②③① |--①-|
⑥口口① |--②-|
口④⑤口 |③-④-|
口口口口 |⑤-⑥-|
76
⑥口口口 |--①-|
⑥④③口 |②-③-|
口口口⑤ |④-⑤-|
口②①⑤ |--⑥-|
77
口口口口 |----|
⑤⑥口口 |①-②-|
口口③④ |③-④-|
①②口口 |⑤-⑥-|
78
④②③① |①-②-|
口口口① |③-④-|
④⑥⑤⑦ |⑤-⑥-|
口⑧口⑦ |⑦-⑧-|
79
⑧④③⑤ |①-②-|
②⑥⑦⑤ |③-④-|
⑧口口口 |⑤-⑥-|
②口①口 |⑦-⑧-|
80
口口口口 |----|
口口口口 |①---|
口口口口 |----|
①①①① |----|

不確定度: 0

最終更新:2014年12月11日 23:09