ドリームキャッチャー
アイくるガールズ

ADVANCED

Level: 5
BPM: 208
Notes: 285

1
口口口口 |----|
口口口口 |----|
口口口口 |----|
口口口口 |----|
2
口口口口 |①---|
③①②口 |②---|
③①②口 |----|
口口口口 |③---|
3
口口口口 |①---|
口口口① |----|
口口口① |----|
口口口口 |----|
4
口口口口 |①---|
①口口口 |----|
口口口② |----|
口口口口 |②---|
5
口口口口 |①---|
口口口口 |②---|
口③④口 |③---|
口①②口 |④---|
6
口③④口 |①---|
口①②口 |②---|
口口口口 |③---|
口口口口 |④---|
7
①口口口 |①---|
口口口② |----|
口口口口 |----|
口口口口 |②---|
8
口口口口 |①---|
①口口口 |----|
②口口口 |----|
口口口口 |②---|
9
口口口口 |①---|
口口口口 |②---|
口④③口 |③---|
口②①口 |④---|
10
口口口② |①---|
口口①口 |----|
口口口口 |----|
口口口口 |②---|
11
口口口口 |①---|
①口口口 |②---|
口口口② |③---|
③口口④ |④---|
12
口口口口 |①---|
口③口口 |②---|
口②口口 |③---|
口①口口 |----|
13
口口①口 |①---|
口口②口 |②---|
口口③口 |③---|
口口④口 |④---|
14
口口口口 |①---|
口口口口 |②---|
①口口② |③---|
③口口④ |④---|
15
口口口口 |----|
口口口口 |----|
口口口口 |①---|
口①②口 |②---|
16
口口口口 |①---|
口③口口 |②---|
口①②口 |③---|
口口口口 |----|
17
①口口② |①---|
③口口④ |②---|
口口口口 |③---|
口口口口 |④---|
18
口口口口 |①---|
口口口口 |----|
①口口② |②---|
口口口② |----|
19
口口口③ |①---|
口口口口 |----|
口②①口 |②---|
口②①口 |③---|
20
口口口口 |①---|
①口口口 |----|
口口口② |----|
口口口口 |②---|
21
口口口口 |①---|
口口口口 |②---|
口③④口 |③---|
口①②口 |④---|
22
口③④口 |①---|
口①②口 |②---|
口口口口 |③---|
口口口口 |④---|
23
①口口② |①---|
口口口③ |②---|
口口口④ |③---|
口口口口 |④---|
24
口口口口 |①---|
口口口口 |----|
口口口口 |②---|
口②①口 |----|
25
口口口口 |①---|
口口口口 |----|
口口①口 |----|
口口口口 |----|
26
口②口④ |①---|
①口③口 |②---|
口口口口 |③---|
口口口口 |④---|
27
口口口口 |①---|
口口口① |----|
口口口口 |----|
口口口口 |----|
28
②口口② |①---|
口口口口 |----|
口口口口 |②---|
①口口① |----|
29
口④口口 |①---|
口③③口 |②---|
口②②口 |③---|
口①①口 |④---|
30
口口①口 |①---|
②口口③ |②---|
④口口口 |③---|
口口口口 |④---|
31
口口口口 |①---|
口口口口 |----|
口口口① |----|
口口口口 |----|
32
口口口口 |①---|
口口口口 |----|
口口②口 |----|
口①口口 |②---|
33
口口口口 |①---|
③口口② |----|
口①口口 |②---|
口口口口 |③---|
34
口①①口 |①---|
口口口口 |----|
口口口口 |②---|
口②②口 |----|
35
口口口口 |①---|
②②②② |----|
①①①① |②---|
口口口口 |----|
36
①①①① |①---|
口口口口 |----|
口口口口 |----|
口口口口 |----|
37
②②②② |----|
①①①① |①---|
口口口口 |②---|
口口口口 |----|
38
口口口口 |①---|
口口口口 |----|
口①①口 |----|
口口口口 |----|
39
②②②② |----|
①①①① |①---|
口口口口 |②---|
口口口口 |----|
40
口口口口 |①---|
口口口口 |----|
口口口口 |②---|
①口口② |----|
41
口口口口 |①---|
①口口② |----|
口口口口 |②---|
口口口口 |----|
42
口①②口 |①---|
口口口口 |----|
口口口口 |②---|
口口口口 |----|
43
口口口口 |①---|
③口口口 |②---|
口①②口 |----|
口口口口 |③---|
44
口口①口 |①---|
口②口口 |②---|
口口③口 |③---|
口④口口 |④---|
45
口口口口 |①---|
口口口口 |----|
②口口③ |②---|
口口①口 |③---|
46
口口口口 |----|
口口口口 |----|
口口口口 |----|
口口口口 |----|
47
口②①口 |①---|
口④③口 |②---|
口口口口 |③---|
口口口口 |④---|
48
口口口口 |①---|
口口口口 |----|
口口①口 |----|
口口口口 |----|
49
口口口口 |①---|
口口口口 |----|
②口口口 |----|
口①①口 |②---|
50
口口口口 |①---|
口口口口 |----|
口口口① |----|
口口口口 |----|
51
口口口口 |①---|
口口口口 |----|
口①①口 |----|
②口口口 |②---|
52
口口口口 |①---|
④口口口 |②---|
②口口③ |③---|
口口口① |④---|
53
口口①口 |----|
口②口口 |①---|
口口③口 |②---|
口口口口 |③---|
54
口口口口 |①---|
口口口口 |----|
①①口口 |②---|
②②口口 |----|
55
口口①口 |①---|
口②口口 |②---|
口口③口 |③---|
口④口口 |④---|
56
口口口口 |①---|
口口口口 |----|
口口口口 |----|
口口①口 |----|
57
口口口口 |----|
口口口口 |----|
口口口口 |----|
口口口口 |----|
58
①口口① |①---|
口口口口 |----|
②口口② |②---|
口口口口 |----|
59
③口口③ |①---|
口①②口 |②---|
口口口口 |----|
口口口口 |③---|
60
口口口口 |----|
口口口口 |----|
口口口口 |①---|
口口口① |----|
61
口口口口 |①---|
口口口口 |----|
口口口口 |②---|
口②①口 |----|
62
口口口口 |①---|
口①口口 |----|
口口②口 |②---|
口口口口 |----|
63
③口口口 |①---|
口口口口 |②---|
口口口口 |----|
口①②口 |③---|
64
口口口① |①---|
口②口口 |----|
口②口口 |②---|
口口口口 |----|
65
口口口口 |①---|
口口①口 |----|
口口①口 |----|
口口口口 |----|
66
口④口口 |①---|
③口口口 |②---|
口②口口 |③---|
①口口口 |④---|
67
①口口口 |①---|
口口②口 |----|
口口口口 |----|
口口口口 |②---|
68
口口①口 |①---|
口口口② |②---|
口口③口 |③---|
口口口④ |④---|
69
口口口口 |①---|
口①①口 |----|
口口口口 |----|
口口口口 |----|
70
①口口口 |①---|
口口口② |②---|
③口口口 |③---|
口口口④ |④---|
71
口口口① |①---|
②口口口 |②---|
口口口③ |③---|
④口口口 |④---|
72
口④口口 |①---|
口口③口 |②---|
口②口口 |③---|
口口①口 |④---|
73
口口①口 |①---|
口②②口 |----|
口②②口 |②---|
口口口口 |----|
74
①口口① |①---|
口口口口 |----|
②口口② |②---|
口口口口 |----|
75
③口口③ |①---|
口①②口 |②---|
口口口口 |----|
口口口口 |③---|
76
口口口口 |----|
口口口口 |----|
口口口口 |①---|
口口口① |----|
77
口口口口 |①---|
口口口口 |----|
口口口口 |②---|
口②①口 |----|
78
口口口口 |①---|
口①口口 |----|
口口②口 |②---|
口口口口 |----|
79
③口口口 |①---|
口口口口 |②---|
口口口口 |----|
口①②口 |③---|
80
口口口① |①---|
口口口口 |----|
口口口口 |----|
口口口口 |----|
81
②口口口 |①---|
口口口口 |----|
口①①口 |----|
口口口口 |②---|
82
口①②③ |①---|
口口口口 |②---|
口口口口 |③---|
口口口口 |----|
83
口口口口 |①---|
口口③② |----|
口①口口 |②---|
口口口口 |③---|
84
口口口口 |①---|
②①口口 |②---|
口③④口 |③---|
口口口口 |④---|
85
口口口② |①---|
口口口口 |----|
口口口① |----|
口口口口 |②---|
86
③口口口 |①---|
口口口① |②---|
口口口② |----|
口口口口 |③---|
87
口③③口 |①---|
①口口口 |②---|
②口口口 |----|
口口口口 |③---|
88
口口口口 |①---|
口①①口 |②---|
④②②④ |③---|
口③③口 |④---|
89
口口口口 |----|
①①口口 |----|
口口口口 |①---|
口口口口 |----|
90
口口口口 |①---|
口口①① |--②-|
口②②口 |----|
口口口口 |----|
91
口口口口 |----|
口口口口 |----|
口口口口 |----|
口口口口 |----|
92
口口口口 |----|
口口口口 |----|
口口口口 |----|
口口口口 |----|
93
口口口口 |----|
口口口口 |----|
口口口口 |----|
口口口口 |----|
94
口口口口 |①---|
口口①口 |----|
口口口口 |----|
口口口口 |----|

不確定度: 0

最終更新:2014年12月11日 23:07