滅びに至るエランプシス
日向美ビタースイーツ♪

ADVANCED

Level: 6
BPM: 158
Notes: 482

1
口口口口 |----|
口口口口 |----|
口口口口 |----|
口口口口 |----|
2
口口口口 |----|
口口口口 |----|
口口口口 |----|
口口口口 |----|
3
口②③口 |①---|
①④口① |②---|
口口口口 |③---|
①口口① |④---|
4
口口口口 |①---|
口口①口 |②---|
口②③口 |③---|
口④口口 |④---|
5
口②③口 |①---|
①④口① |②---|
口口口口 |③---|
①口口① |④---|
6
口口口口 |①---|
口口①口 |②---|
口②③口 |③---|
口④⑤口 |④-⑤-|
7
口口口口 |①---|
①口口① |--②-|
口②口口
①口口①

口口③口
④口口口
口口口口 |③---|
口口口口 |--④-|
8
口口口口 |①---|
口④⑤① |②-③-|
口口③口 |④-⑤-|
口②口口 |----|
9
口口③口 |①---|
①口口① |--②-|
④②口口 |③---|
①口口① |--④-|
10
口②口口 |①---|
口口③口 |②-③-|
口④⑤① |④---|
口口口口 |--⑤-|
11
口口③口 |①---|
①④口① |--②-|
口②口口 |③---|
①口口① |--④-|
12
口口口口 |①---|
②口口① |--②-|
口④③口 |③-④-|
口⑥⑤口 |⑤-⑥-|
13
①口口① |①---|
口②②口 |--②-|
①口口① |--③-|
③⑤④口 |④-⑤-|
14
口口口口 |①-②-|
②④③口 |③-④-|
口⑥⑤口 |⑤-⑥-|
口⑧⑦① |⑦-⑧-|
15
①②口① |①-②-|
口口③口 |③-④-|
①④口①
口口口口

口口口口
口口口口
⑧口⑦口 |⑤-⑥-|
口⑥口⑤ |⑦-⑧-|
16
口⑥口口 |①---|
口①①口 |②-③-|
⑤口④⑦ |④-⑤-|
口③口② |⑥-⑦-|
17
口口口口 |--①-|
口口口口 |②-③-|
口①口口 |----|
③口②口 |----|
18
口⑤口口 |----|
口口口口 |①-②-|
④口③⑥ |③-④-|
口②口① |⑤-⑥-|
19
口口口口 |--①-|
③③口口 |②-③-|
口①口口 |----|
口口②口 |----|
20
口⑤口口 |----|
口口口口 |①-②-|
④口③⑥ |③-④-|
口②口① |⑤-⑥-|
21
口口口口 |--①-|
口口口口 |②-③-|
口①口口 |----|
③口②口 |----|
22
口⑤口口 |----|
口口口口 |①-②-|
④口③⑥ |③-④-|
口②口① |⑤-⑥-|
23
口口口口 |--①-|
③③口口 |②-③-|
口①口口 |----|
口口②口 |----|
24
口口口口 |①---|
口口口口 |②-③-|
①⑤②④ |④---|
口③口口 |⑤---|
25
口口口口 |①---|
口口口口 |②---|
④③④③ |③---|
①②①② |④---|
26
⑦⑥⑤④ |①---|
②③口口 |②-③-|
口口口口 |④-⑤-|
①口口① |⑥-⑦-|
27
口⑤⑤口 |①-②-|
②④①③ |③-④-|
口口口口 |⑤---|
口口口口 |----|
28
口口口口 |①---|
口口口口 |②-③-|
①⑤②④ |④---|
口③口口 |⑤---|
29
口口口口 |①---|
口口口口 |②---|
④③④③ |③---|
①②①② |④---|
30
⑦⑥⑤④ |①---|
②③口口 |②-③-|
口口口口 |④-⑤-|
①口口① |⑥-⑦-|
31
口⑤⑤口 |①-②-|
②④①③ |③-④-|
口⑦口口 |⑤---|
⑥口口口 |⑥-⑦-|
32
口口口口 |①---|
口④①① |----|
口口③口 |--②-|
口口口② |③-④-|
33
②口①① |①---|
口③口口 |----|
口口④口 |--②-|
口口口口 |③-④-|
34
口口口② |①---|
口口③口 |----|
口④口口 |--②-|
①①口口 |③-④-|
35
口口口口 |①---|
②口口口 |----|
口③口口 |----|
口口①① |②-③-|
36
口口②口 |①---|
口③①① |----|
口口④口 |--②-|
口口口口 |③-④-|
37
口口口口 |①---|
口口口口 |----|
口口口口 |----|
①①口口 |----|
38
④④④④ |①---|
③③③口 |②---|
②②口口 |③---|
①口口口 |④---|
39
④④④④ |①---|
口③③③ |②---|
口口②② |③---|
口口口① |④---|
40
口口口口 |①---|
②口口④ |②---|
①①③③ |③---|
②口口④ |④---|
41
①①①① |①---|
口口口口 |----|
②口口② |----|
口口口口 |--②-|
42
①口口① |①---|
口口口口 |--②-|
口②口口 |③---|
④口③口 |④---|
43
口口口口 |①---|
口②口口 |②-③-|
⑤口③⑤ |④---|
口④口① |--⑤-|
44
①口口① |①---|
口口口口 |--②-|
口②口口 |③---|
④口③口 |④---|
45
口口口口 |①---|
口②⑥口 |②-③-|
口口③⑤ |④---|
口④口① |⑤-⑥-|
46
①①口口 |①---|
③③口口 |--②-|
口口②口 |③---|
口口口④ |--④-|
47
口口②口 |①---|
口③⑥口 |--②-|
①①口口 |③-④-|
口⑤④口 |⑤-⑥-|
48
口口口口 |①---|
②口口③ |----|
口①①口 |----|
口口口口 |②-③-|
49
口口口口 |①---|
口口口口 |----|
口①①口 |----|
口口口口 |----|
50
口口口口 |----|
口口口① |----|
③口②口 |--①-|
口口口口 |②-③-|
51
口口口② |①---|
口①口口 |--②-|
口口口口
口口口口

口口口口
口⑤⑥口
口③④口 |③-④-|
口口口口 |⑤-⑥-|
52
②口口口 |①---|
口口口口 |----|
①口口① |----|
口口口口 |②---|
53
口口口口 |①---|
口⑥⑦① |②-③-|
口②③口 |④-⑤-|
口④⑤口 |⑥-⑦-|
54
①口口① |①---|
口②口口 |----|
口口③口 |----|
口口口口 |②-③-|
55
口②②口 |①---|
①③⑥① |②---|
①⑤④① |③-④-|
口②②口 |⑤-⑥-|
56
口口口口 |①---|
①口口① |----|
口口口口
口口口口

口②口口
②口口口
口口口② |----|
口口②口 |②---|
57
口口①② |①---|
口口口① |--②-|
①口口口
口①口口

口⑤口口
③口口⑥
口口④口 |③-④-|
口口口口 |⑤-⑥-|
58
口口口口 |①---|
口口①口 |----|
口①口①
口口①口

口口口口
④口口口
②④③口 |--②-|
口②口③ |③-④-|
59
②②③③ |①---|
口口①口 |②-③-|
口口口①
口口口口

口口口口
口④⑦口
④⑥⑤⑦ |④-⑤-|
⑥口口⑤ |⑥-⑦-|
60
口口口口 |①---|
①口口① |----|
②口口口 |----|
口②口口 |②---|
61
口口口口 |①---|
②口①口 |--②-|
口②口①
口口口口

④④③③
口⑥⑤口
⑥口口⑤ |③-④-|
口口口口 |⑤-⑥-|
62
口口口口 |①---|
口口口口 |----|
口口口口
①口口①

口口口口
口口口口
口②③口 |----|
②口口③ |②-③-|
63
②②③③ |①---|
①④⑤① |--②-|
④口口⑤ |③-④-|
口⑥⑥口 |⑤-⑥-|
64
口口口口 |①---|
①口口① |----|
口口口口
口口口口

口②口口
②口口口
口口口② |----|
口口②口 |②---|
65
口口①口 |①---|
口口②① |--②-|
①口口口
口①口口

口口⑥口
口③口口
口⑤④口 |③-④-|
口口口口 |⑤-⑥-|
66
①口口① |①---|
③口口⑥ |②-③-|
口⑦④④ |④-⑤-|
⑤口②② |⑥-⑦-|
67
口口口① |①-②-|
②口口口 |③-④-|
④⑥⑥⑤ |⑤---|
口口③③ |⑥---|
68
①口口① |①---|
③口口⑥ |②-③-|
口⑦④④ |④-⑤-|
⑤口②② |⑥-⑦-|
69
④④口① |①-②-|
②口⑥口 |③-④-|
口口口⑤ |⑤---|
口口③③ |⑥---|
70
口口口口 |①---|
③口口① |②-③-|
口口口口
口口②②

口口口口
口口口⑥
口⑦④④ |④-⑤-|
⑤口口口 |⑥-⑦-|
71
口口口① |①-②-|
②⑦⑥口 |③-④-|
④口口⑤ |⑤---|
口口③③ |⑥-⑦-|
72
口口口① |①---|
③口口⑥ |②-③-|
口⑦④④ |④-⑤-|
⑤口②② |⑥-⑦-|
73
④④口① |①-②-|
②口口口 |③-④-|
口口口口
口口③③

口口⑥⑥
口口口口
口口⑤⑤ |⑤---|
⑥⑥口口 |⑥---|

不確定度: 0

最終更新:2014年12月11日 23:06