走れメロンパン
日向美ビタースイーツ♪

BASIC

Level: 3
BPM: 170
Notes: 206

1
口口口口 |----|
口口口口 |----|
口口口口 |----|
口口口口 |----|
2
口口口口 |①---|
口口口口 |----|
口①口口 |----|
口口口口 |----|
3
口口口口 |----|
口口口口 |----|
口口口口 |----|
口口口口 |----|
4
口口口口 |①---|
口口口口 |----|
口口①口 |----|
口口口口 |----|
5
口口口口 |----|
口口口口 |----|
口口口口 |----|
口口口口 |----|
6
口口口口 |①---|
口口口口 |----|
口①①口 |----|
口口口口 |----|
7
口口口口 |----|
口口口口 |----|
口口口口 |----|
口口口口 |----|
8
口口口口 |①---|
口①①口 |----|
口口口口 |----|
口口口口 |----|
9
口①①口 |①---|
口口口口 |----|
口口口口 |----|
口口口口 |----|
10
口口口口 |①---|
口口口口 |----|
口①①口 |----|
口口口口 |----|
11
口口口口 |----|
口口口口 |----|
口口口口 |----|
口口口口 |----|
12
口口口口 |①---|
口②口口 |----|
口①口口 |②---|
口口口口 |----|
13
口口口口 |①---|
口口②口 |----|
口口①口 |②---|
口口口口 |----|
14
口口口口 |①---|
口口口口 |----|
口①①口 |----|
口口口口 |----|
15
口口口口 |①---|
口口口口 |----|
口口口口 |----|
口①①口 |----|
16
口口口口 |①---|
口②口口 |----|
口①口口 |②---|
口口口口 |----|
17
口口口口 |①---|
口口②口 |----|
口口①口 |②---|
口口口口 |----|
18
口口口口 |①---|
口口口口 |----|
口①①口 |----|
口口口口 |----|
19
口口口口 |①---|
口口口口 |----|
口口口口 |----|
口①①口 |----|
20
口口口口 |①---|
①②③口 |②---|
口口口口 |③---|
口口口口 |----|
21
口口口口 |①---|
口口口口 |②---|
口③②① |③---|
口口口口 |----|
22
口口口口 |①---|
①②③口 |②---|
口口口口 |③---|
口口口口 |----|
23
口口口口 |①---|
口口口口 |②---|
口③②① |③---|
口口口口 |----|
24
口口口口 |①---|
②③④口 |②---|
①口口口 |③---|
口口口口 |④---|
25
口口口口 |①---|
口口口① |②---|
口④③② |③---|
口口口口 |④---|
26
口口口口 |①---|
口①①口 |----|
口口口口 |----|
口口口口 |----|
27
口口口口 |①---|
口口口口 |----|
口①①口 |----|
口口口口 |----|
28
①②③④ |①---|
口口口口 |②---|
口口口口 |③---|
口口口口 |④---|
29
口口口口 |①---|
④③②① |②---|
口口口口 |③---|
口口口口 |④---|
30
口口口口 |①---|
口口口口 |②---|
①②③④ |③---|
口口口口 |④---|
31
口口口口 |①---|
口口口口 |----|
口口口口 |----|
口口口① |----|
32
口④口口 |①---|
口③口口 |②---|
口②口口 |③---|
口①口口 |④---|
33
口口①口 |①---|
口口②口 |②---|
口口③口 |③---|
口口④口 |④---|
34
口口口口 |①---|
口③④口 |②---|
口②口口 |③---|
口①口口 |④---|
35
口口口口 |①---|
口口口口 |----|
口口①口 |----|
口口口口 |----|
36
口口口口 |----|
口②口口 |----|
口①口口 |--①-|
口口口口 |--②-|
37
口口口口 |--①-|
口④②口 |--②-|
口③①口 |--③-|
口口口口 |--④-|
38
口③③口 |--①-|
口口②口 |--②-|
口口①口 |--③-|
口口口口 |----|
39
口口口口 |①---|
口①②口 |②---|
口③④口 |③---|
口口口口 |④---|
40
口口口口 |①---|
口③口口 |----|
口②口口 |--②-|
口①①口 |--③-|
41
口口口口 |--①-|
口④②口 |--②-|
口③①口 |--③-|
口口口口 |--④-|
42
口③③口 |--①-|
口口②口 |--②-|
口口①口 |--③-|
口口口口 |----|
43
口口口口 |①---|
口③④口 |②---|
口①②口 |③---|
口口口口 |④---|
44
③口口③ |①---|
②口口② |②---|
①口口① |③---|
口口口口 |----|
45
口口口口 |①---|
口①口口 |----|
口口①口 |----|
口口口口 |----|
46
口口口口 |①---|
口口①口 |----|
口①口口 |----|
口口口口 |----|
47
口口口口 |①---|
①口口口 |----|
口①口口 |----|
口口口口 |----|
48
口口口口 |①---|
口口口① |----|
口口①口 |----|
口口口口 |----|
49
④口口口 |①---|
③口口口 |②---|
②口口口 |③---|
①口口口 |④---|
50
口口④口 |①---|
口口③口 |②---|
口口②口 |③---|
口口①口 |④---|
51
口④口口 |①---|
口③口口 |②---|
口②口口 |③---|
口①口口 |④---|
52
口口口④ |①---|
口口口③ |②---|
口口口② |③---|
口口口① |④---|
53
口口口口 |--①-|
口④②口 |--②-|
口③①口 |--③-|
口口口口 |--④-|
54
口③③口 |--①-|
口口②口 |--②-|
口口①口 |--③-|
口口口口 |----|
55
口口口口 |①---|
口①②口 |②---|
口③④口 |③---|
口口口口 |④---|
56
口口口口 |①---|
口③口口 |----|
口②口口 |--②-|
口①①口 |--③-|
57
口口口口 |--①-|
口④②口 |--②-|
口③①口 |--③-|
口口口口 |--④-|
58
口③③口 |--①-|
口口②口 |--②-|
口口①口 |--③-|
口口口口 |----|
59
口口口口 |①---|
口③④口 |②---|
口①②口 |③---|
口口口口 |④---|
60
③口口③ |①---|
②口口② |②---|
①口口① |③---|
口口口口 |----|
61
口口口口 |①---|
口①口口 |----|
口口①口 |----|
口口口口 |----|
62
口口口口 |①---|
口口①口 |----|
口①口口 |----|
口口口口 |----|
63
口口口口 |①---|
①口口口 |----|
口①口口 |----|
口口口口 |----|
64
口口口口 |①---|
口口口① |----|
口口①口 |----|
口口口口 |----|
65
口④口口 |①---|
口③口口 |②---|
口②口口 |③---|
口①口口 |④---|
66
口口④口 |①---|
口口③口 |②---|
口口②口 |③---|
口口①口 |④---|
67
口③③口 |①---|
口④④口 |②---|
口②口口 |③---|
口①口口 |④---|
68
口口口口 |①---|
口口口口 |②---|
④①①④ |③---|
③②②③ |④---|
69
口口口口 |①---|
①口口① |----|
口口口口 |----|
口口口口 |----|
70
口口口口 |①---|
口口口口 |----|
口①①口 |----|
口口口口 |----|
71
口口口口 |①---|
口①①口 |----|
口口口口 |----|
口口口口 |----|

不確定度: 0

最終更新:2014年12月11日 23:06