走れメロンパン
日向美ビタースイーツ♪

ADVANCED

Level: 5
BPM: 170
Notes: 311

1
口口口口 |----|
口口口口 |----|
口口口口 |----|
口口口口 |----|
2
口口口口 |①---|
口口口口 |----|
口①①口 |----|
口口口口 |----|
3
口口口口 |----|
口口口口 |----|
口口口口 |----|
口口口口 |----|
4
口口口口 |①---|
口①①口 |----|
口口口口 |----|
口口口口 |----|
5
口口口口 |①---|
口口口口 |----|
①口口① |----|
口口口口 |----|
6
口口口口 |①---|
口口口口 |----|
口口口口 |----|
口①①口 |----|
7
口口口口 |----|
口口口口 |----|
口口口口 |----|
口口口口 |----|
8
口口口口 |①---|
口①①口 |----|
口口口口 |----|
口口口口 |----|
9
①口口① |①---|
口口口口 |----|
口口口口 |----|
口口口口 |----|
10
口口口口 |①---|
口①口口 |----|
口口①口 |----|
口口口口 |----|
11
口口口口 |----|
口②口口 |----|
口口口口 |--①-|
口①口口 |--②-|
12
口口口口 |--①-|
口口②口 |--②-|
口③③口 |--③-|
口口①口 |----|
13
①②③④ |①---|
口口口口 |②---|
口口口口 |③---|
口口口口 |④---|
14
口口口口 |①---|
口①①口 |②---|
口口口口 |----|
口②②口 |----|
15
口口口口 |----|
口②口口 |----|
口口口口 |--①-|
口①口口 |--②-|
16
口口口口 |--①-|
口口②口 |--②-|
口③③口 |--③-|
口口①口 |----|
17
口①②口 |①---|
口③④口 |②---|
口口口口 |③---|
口口口口 |④---|
18
口口口口 |①---|
口口口口 |----|
口口口口 |----|
口①①口 |----|
19
口口口口 |①---|
口口口口 |----|
①②口① |----|
口口口口 |②---|
20
口口②② |①---|
口口口口 |②---|
口口口① |----|
口口口口 |----|
21
口口口口 |----|
口口口口 |----|
口口①口 |----|
口口口口 |①---|
22
①①口口 |①---|
口口口口 |②---|
②口口口 |----|
口口口口 |----|
23
口口口口 |----|
口口口口 |----|
口口口口 |----|
口口①口 |①---|
24
③口④口 |①---|
口口口② |②---|
口①口口 |③---|
口口口口 |④---|
25
口口口口 |①---|
口口口④ |②---|
①口口② |③---|
口③口口 |④---|
26
口口②口 |①---|
①口口口 |②---|
口③口口 |③---|
口口④口 |④---|
27
口口口口 |①---|
口①②口 |②---|
口③③口 |③---|
口口口口 |----|
28
①②③④ |①---|
口口口口 |②---|
口口口口 |③---|
口口口口 |④---|
29
口口口口 |①---|
口①③② |②---|
口④口口 |③---|
口口口口 |④---|
30
口口口口 |①---|
口口口口 |②---|
口口②① |③---|
③④口口 |④---|
31
口口口口 |①---|
口口口口 |----|
口口口口 |----|
口口口① |----|
32
①②口③ |①---|
口④口口 |②---|
口口口口 |③---|
口口口口 |④---|
33
口③②口 |①---|
④口①口 |②---|
口口口口 |③---|
口口口口 |④---|
34
口口口口 |①---|
口口口① |②---|
④口③口 |③---|
口②口口 |④---|
35
口口口口 |①---|
口口口口 |----|
口口口口 |----|
口①①口 |----|
36
口口口口 |----|
②②口口 |----|
口口口口 |--①-|
口①口口 |--②-|
37
口口口口 |--①-|
④④②② |--②-|
口口口口 |--③-|
口③①口 |--④-|
38
③口口③ |--①-|
口口②② |--②-|
口口口口 |--③-|
口口①口 |----|
39
口口口口 |①---|
口口口口 |②---|
②④④② |③---|
①③③① |④---|
40
③③口口 |①---|
口①①口 |----|
口口口口 |--②-|
口②口口 |--③-|
41
④④②② |--①-|
口口口口 |--②-|
口口口口 |--③-|
口③①口 |--④-|
42
口口②② |--①-|
③口口③ |--②-|
口口口口 |--③-|
口口①口 |----|
43
口口口口 |①---|
口口口口 |②---|
④②②④ |③---|
①③③① |④---|
44
①③③① |①---|
口口口口 |②---|
口②②口 |③---|
口口口口 |----|
45
口口口① |①---|
口口②口 |②---|
口③口口 |③---|
④口口口 |④---|
46
③口口③ |①---|
②口口② |②---|
①口口① |③---|
口口口口 |----|
47
口口口口 |①---|
口口口④ |②---|
口口口③ |③---|
口①②口 |④---|
48
口口口口 |①---|
④口口口 |②---|
③口口口 |③---|
口②①口 |④---|
49
口④④口 |①---|
口③③口 |②---|
口②②口 |③---|
口①①口 |④---|
50
④口口④ |①---|
③口口③ |②---|
②口口② |③---|
①口口① |④---|
51
④口口④ |①---|
③口口③ |②---|
口②②口 |③---|
口①①口 |④---|
52
口④④口 |①---|
口③③口 |②---|
②③③② |③---|
①口口① |④---|
53
口口口口 |--①-|
④④②② |--②-|
口口口口 |--③-|
口③①口 |--④-|
54
③口口③ |--①-|
口口②② |--②-|
口口口口 |--③-|
口口①口 |----|
55
口口口口 |①---|
口口口口 |②---|
②④④② |③---|
①③③① |④---|
56
③③口口 |①---|
口①①口 |----|
口口口口 |--②-|
口②口口 |--③-|
57
④④②② |--①-|
口口口口 |--②-|
口口口口 |--③-|
口③①口 |--④-|
58
口口②② |--①-|
③口口③ |--②-|
口口口口 |--③-|
口口①口 |----|
59
口口口口 |①---|
口口口口 |②---|
④②②④ |③---|
①③③① |④---|
60
①③③① |①---|
口口口口 |②---|
口②②口 |③---|
口口口口 |----|
61
口口口① |①---|
口口②口 |②---|
口③口口 |③---|
④口口口 |④---|
62
③口口③ |①---|
②口口② |②---|
①口口① |③---|
口口口口 |----|
63
口口口口 |①---|
口口口④ |②---|
口口口③ |③---|
口①②口 |④---|
64
口口口口 |①---|
④口口口 |②---|
③口口口 |③---|
口②①口 |④---|
65
口④④口 |①---|
口③③口 |②---|
口②②口 |③---|
口①①口 |④---|
66
④口口④ |①---|
③口口③ |②---|
②口口② |③---|
①口口① |④---|
67
③③③③ |①---|
④④④④ |②---|
口②②口 |③---|
口①①口 |④---|
68
口口口口 |①---|
口口口口 |②---|
①①①①
②②②②

口口口口
③③③③
口④⑤口 |③---|
口口口口 |④-⑤-|
69
口口口口 |----|
口口口口 |----|
口口口口 |----|
口口口口 |----|
70
口口口口 |①---|
口①①口 |----|
口口口口 |----|
口口口口 |----|
71
口口口口 |①---|
口口口口 |----|
口①①口 |----|
口口口口 |----|

不確定度: 0

最終更新:2014年12月11日 23:05