マーメイド
T!P

BASIC

Level: 3
BPM: 154
Notes: 190

1
口口口口 |----|
口口口口 |----|
口口口口 |----|
口口口口 |----|
2
口口口口 |①---|
口①②口 |--②-|
口①②口
口口口口

口口口口
口③口口
口③口口 |----|
口口口口 |③---|
3
口口口口 |--①-|
口②①口 |----|
口②①口 |②---|
口口口口 |----|
4
①②③口 |①---|
口口口口 |②---|
口口口口 |③---|
口口口口 |----|
5
口口口口 |①---|
口③②① |②---|
口口口口 |③---|
口口口口 |----|
6
口口口口 |①---|
口口口口 |②---|
①②③口 |③---|
口口口口 |----|
7
口口口口 |①---|
口口口口 |②---|
口口口口 |③---|
口③②① |----|
8
①②③口 |①---|
口口口口 |②---|
口口口口 |③---|
口口口口 |----|
9
口口口口 |①---|
口③②① |②---|
口口口口 |③---|
口口口口 |----|
10
口口口口 |①---|
口口口口 |②---|
①②③口 |③---|
口口口口 |----|
11
口口口口 |①---|
口口口口 |②---|
口口口口 |③---|
口③②① |----|
12
口口口口 |①---|
口口②口 |----|
口口①口 |②---|
口口口口 |----|
13
口口口口 |①---|
口①口口 |----|
口②口口 |②---|
口口口口 |----|
14
口口口口 |①---|
口口口② |----|
口口口① |②---|
口口口口 |----|
15
口口口口 |①---|
①口口口 |----|
②口口口 |②---|
口口口口 |----|
16
口口口口 |①---|
口口口口 |----|
口口②口 |②---|
口口①口 |----|
17
口口口口 |①---|
口口口口 |----|
口①口口 |②---|
口②口口 |----|
18
口口口口 |①---|
口口口口 |----|
①口口口 |----|
口口口口 |----|
19
①口口口 |①---|
口②口口 |----|
口口口口 |②---|
口口口口 |----|
20
口口口口 |①---|
口口②口 |----|
口口①口 |②---|
口口口口 |----|
21
口口口口 |①---|
口①口口 |----|
口②口口 |②---|
口口口口 |----|
22
口口口口 |①---|
口口口② |----|
口口口① |②---|
口口口口 |----|
23
口口口口 |①---|
①口口口 |----|
②口口口 |②---|
口口口口 |----|
24
口口口口 |①---|
口口口口 |----|
口口②口 |②---|
口口①口 |----|
25
口口口口 |①---|
口口口口 |----|
口①口口 |②---|
口②口口 |----|
26
口口口口 |①---|
口口①① |----|
②②口口 |②---|
口口口口 |----|
27
口口口口 |①---|
口口口口 |----|
口口口口 |----|
口口①① |----|
28
口口口口 |①---|
③口口口 |②---|
②口口口 |③---|
①口口口 |----|
29
口口口口 |①---|
口口口③ |②---|
口口口② |③---|
口口口① |----|
30
口口口口 |①---|
口口口口 |②---|
口③④口 |③---|
口①②口 |④---|
31
口③口口 |①---|
口①②口 |②---|
口口口口 |③---|
口口口口 |----|
32
口口口口 |①---|
口口口③ |②---|
口口口② |③---|
口口口① |----|
33
口口口口 |①---|
③口口口 |②---|
②口口口 |③---|
①口口口 |----|
34
口④④口 |①---|
口③③口 |②---|
口②②口 |③---|
口①①口 |④---|
35
①口口① |①---|
②口口② |②---|
③口口③ |③---|
④口口④ |④---|
36
②②口口 |①---|
口口口口 |----|
口①①口 |----|
口口口口 |--②-|
37
口口③③ |----|
口口①口 |①---|
口口②口 |②---|
口口口口 |--③-|
38
③③口口 |----|
口①口口 |①---|
口②口口 |②---|
口口口口 |--③-|
39
口口口口 |----|
口②①口 |①---|
口口③口 |②---|
口口口口 |③---|
40
口口④④ |①---|
口口口口 |②---|
口①口口 |③---|
口③②口 |--④-|
41
③③口口 |----|
口①口口 |①---|
口②口口 |②---|
口口口口 |--③-|
42
口口③③ |----|
口口①口 |①---|
口口②口 |②---|
口口口口 |--③-|
43
口口口口 |----|
①口口② |①---|
③口口口 |②---|
口口口口 |③---|
44
口口口口 |①---|
口口口口 |②---|
口口口① |③---|
②口口③ |----|
45
②口口③ |①---|
口口口口 |----|
口①①口 |②---|
口口口口 |③---|
46
口口口口 |①---|
①口口口 |----|
口②③口 |②---|
口口口口 |③---|
47
口口口口 |①---|
口口口口 |②---|
口口口口 |③---|
③①②④ |④---|
48
口口④④ |①---|
③口口口 |②---|
①口口② |③---|
口口口口 |--④-|
49
③③口口 |----|
口①口口 |①---|
口②口口 |②---|
口口口口 |--③-|
50
口口口口 |----|
口口①口 |①---|
口口②口 |②---|
口口口口 |----|
51
口口①① |①---|
②②口口 |--②-|
口口③③ |----|
口口口口 |③---|
52
口口口口 |--①-|
口口②口 |----|
口②口口 |②---|
①①口口 |----|
53
①②③口 |①---|
口口口口 |②---|
口口口口 |③---|
口口口口 |----|
54
口口口口 |①---|
口③②① |②---|
口口口口 |③---|
口口口口 |----|
55
口口口口 |①---|
口口口口 |②---|
①②③口 |③---|
口口口口 |----|
56
口口口口 |①---|
口口口口 |②---|
口口口口 |③---|
口③②① |----|
57
①①口口 |①---|
口口②② |--②-|
③③口口 |----|
口口口口 |③---|
58
口口口口 |--①-|
口②口口 |----|
口口②口 |②---|
口口①① |----|

不確定度: 0

最終更新:2014年12月11日 23:02