マーメイド
T!P

ADVANCED

Level: 5
BPM: 154
Notes: 366

1
口口口口 |----|
口口口口 |----|
口口口口 |----|
口口口口 |----|
2
①③④② |①-②-|
①③④② |--③-|
⑤口口⑥ |④---|
⑤口口⑥ |⑤-⑥-|
3
口口口④ |--①-|
口③③④ |②---|
口①②口 |③---|
口①②口 |--④-|
4
⑤口口口 |----|
⑤①②口 |①-②-|
口③④口 |③-④-|
口口口口 |--⑤-|
5
口口口⑤ |----|
口②①⑤ |①-②-|
口④③口 |③-④-|
口口口口 |--⑤-|
6
口口口口 |--①-|
口①②口 |②---|
口口口口 |--③-|
③④⑤口 |④-⑤-|
7
口口口③ |①---|
②口口③ |--②-|
口口口口 |----|
口口口① |--③-|
8
⑤口口口 |----|
⑤①②口 |①-②-|
口③④口 |③-④-|
口口口口 |--⑤-|
9
口口口⑤ |----|
口②①⑤ |①-②-|
口④③口 |③-④-|
口口口口 |--⑤-|
10
口口口口 |--①-|
⑤①②口 |②---|
口口口④ |--③-|
③口口口 |④-⑤-|
11
口口口① |①---|
口②口口 |--②-|
口口口口 |----|
口口口口 |----|
12
口口③口 |①---|
口④口口 |--②-|
口口⑤① |--③-|
②口口口 |④-⑤-|
13
口口口口 |①---|
③口口② |②-③-|
口口口口 |----|
口①口口 |----|
14
口②①口 |①---|
口口③口 |--②-|
口④口口 |--③-|
口口口口 |④---|
15
口口口口 |--①-|
口口口口 |②---|
口口①口 |----|
口②口口 |----|
16
口口③① |①---|
口④口口 |--②-|
②口⑤口 |--③-|
口口口口 |④-⑤-|
17
口口口口 |①---|
③⑤⑤② |②-③-|
口④④口 |--④-|
口①口口 |--⑤-|
18
口口口口 |----|
①口口口 |----|
口口口口 |----|
口口口口 |--①-|
19
口口口① |①---|
口口口③ |②-③-|
②口口口 |--④-|
口④口口 |----|
20
口口口口 |①---|
口口口口 |--②-|
口口①①
②口口口

口口③口
口④口口
口口⑤口 |--③-|
口口口口 |④-⑤-|
21
口口口口 |①---|
③口口② |②-③-|
口口口口 |----|
口①口口 |----|
22
口②①口 |①---|
口口③口 |--②-|
口④口口 |--③-|
口口⑤口 |④-⑤-|
23
口口口口 |--①-|
口口口口 |②---|
口口①口 |----|
口②口口 |----|
24
口口③① |①---|
口④口口 |--②-|
②口⑤口 |--③-|
口口口口 |④-⑤-|
25
口口口口 |①---|
③口口② |②-③-|
口④④口 |--④-|
口①口口 |----|
26
②①①口 |①---|
口③③口 |②-③-|
④口口⑤ |--④-|
口⑥⑥口 |⑤-⑥-|
27
口口①① |----|
口口口口 |----|
口口口口 |----|
口口口口 |--①-|
28
⑥⑥口口 |--①-|
口①②口 |②-③-|
口③④口 |④-⑤-|
口⑤口口 |--⑥-|
29
口口⑥⑥ |--①-|
口②①口 |②-③-|
口④③口 |④-⑤-|
口口⑤口 |--⑥-|
30
口⑦口口 |--①-|
①口⑥口 |②-③-|
口⑤口② |④-⑤-|
③口④口 |⑥-⑦-|
31
④④口口 |--①-|
口口口① |②---|
②口口口 |③---|
口③口口 |--④-|
32
口口④④ |--①-|
口②①口 |②---|
口②①口 |③---|
口口口③ |--④-|
33
④口口④ |--①-|
口①②口 |②---|
口①②口 |③---|
③口口口 |--④-|
34
口⑦⑦口 |--①-|
⑥②②⑥ |②-③-|
⑤①①⑤ |④-⑤-|
③④④③ |⑥-⑦-|
35
③口口③ |--①-|
口②②口 |②-③-|
口①①口
口口口口

口口口口
口口口口
口④④口 |----|
口④④口 |--④-|
36
口口①① |----|
口口口口 |----|
口口口口 |----|
口口口口 |--①-|
37
⑤⑤口口 |--①-|
口①口口 |②-③-|
②口口口 |④---|
④③口口 |--⑤-|
38
口口⑤⑤ |--①-|
口口①口 |②-③-|
口口口② |④---|
口口③④ |--⑤-|
39
口口口口 |--①-|
口①口口 |②-③-|
口③②口 |④-⑤-|
⑦⑤④⑥ |⑥-⑦-|
40
④④口口 |--①-|
②口口① |②---|
口③口口 |③---|
口口口口 |--④-|
41
口口⑤⑤ |--①-|
口口①口 |②-③-|
口口口② |④---|
口口③④ |--⑤-|
42
⑤⑤口口 |--①-|
口①口口 |②-③-|
②口口口 |④---|
④③口口 |--⑤-|
43
口口口口 |--①-|
口②①口 |②---|
⑥口口③ |③-④-|
口⑤④口 |⑤-⑥-|
44
口④④口 |----|
口口①口 |--①-|
口②口口 |②-③-|
口口③口 |--④-|
45
口⑤⑤口 |----|
①口口口 |--①-|
口口④② |②-③-|
③口口口 |④-⑤-|
46
口口口口 |----|
口口口口 |----|
②口口① |①-②-|
④口口③ |③-④-|
47
口④①口 |--①-|
口②⑤口 |②-③-|
口⑥③口 |--④-|
口口口口 |⑤-⑥-|
48
口口④④ |--①-|
①口口② |②---|
口口口口 |③---|
口③③口 |--④-|
49
⑤⑤口口 |--①-|
口①口口 |②-③-|
②口口口 |④---|
④③口口 |--⑤-|
50
口口口口 |--①-|
口口①口 |②-③-|
口口口② |④---|
口口③④ |----|
51
②口口① |①-②-|
②⑥⑤① |--③-|
④⑥⑤③ |④---|
④口口③ |⑤-⑥-|
52
口②①口 |--①-|
②口口① |②---|
口口口口
口口口口

口口口④
口口口④
口口口口 |③---|
③③③③ |--④-|
53
⑤口口口 |----|
⑤①②口 |①-②-|
口③④口 |③-④-|
口口口口 |--⑤-|
54
口口口⑤ |----|
口②①⑤ |①-②-|
口④③口 |③-④-|
口口口口 |--⑤-|
55
口口口口 |--①-|
口①②口 |②---|
口口口口
口口口口

口口口口
口⑤口口
口口④口 |--③-|
口③口口 |④-⑤-|
56
口口①口 |①---|
②口口口 |--②-|
口口口口
口口口口

口③④口
口口口口
口口口口 |--③-|
口口口口 |④---|
57
④口口③ |①-②-|
④⑥⑤③ |--③-|
②⑥⑤① |④---|
②口口① |⑤-⑥-|
58
口②①口 |--①-|
②口口① |②---|
口口口口 |③---|
③③③③ |----|

不確定度: 0

最終更新:2014年12月11日 23:02