aura
Expander

BASIC

Level: 4
BPM: 175
Notes: 301

1
口口口口 |----|
口口口口 |----|
口口口口 |----|
口口口口 |----|
2
口①②口 |①---|
口口口口 |----|
口①②口 |②---|
口口口口 |----|
3
口口口口 |①---|
口①①口 |----|
口口口口 |②---|
口②②口 |----|
4
①口口① |①---|
口②口口 |----|
口口③口 |②---|
口口口口 |③---|
5
口口口口 |①---|
口口口口 |----|
口③口口 |②---|
②口口① |③---|
6
口口口口 |①---|
②口①口 |----|
③口口口 |②---|
口口口口 |③---|
7
口口口口 |①---|
口口口口 |----|
口口口口 |②---|
①口口② |----|
8
口口口口 |①---|
口口口口 |----|
口①口口 |----|
口口口口 |----|
9
口口口口 |①---|
口口口口 |----|
口口①口 |②---|
口②口口 |----|
10
口①②口 |①---|
口口口口 |----|
口①②口 |②---|
口口口口 |----|
11
口口口口 |①---|
口①①口 |----|
口口口口 |②---|
口②②口 |----|
12
①口口① |①---|
口口③口 |----|
口②口口 |②---|
口口口口 |③---|
13
口口口① |①---|
口③口口 |----|
口口②口 |②---|
口口口口 |③---|
14
①口口口 |①---|
口口②口 |----|
口口口口 |----|
口口口口 |②---|
15
口口口口 |①---|
口口口口 |----|
口①口② |②---|
口②口口 |----|
16
口口口① |①---|
口①口口 |----|
口口口口 |----|
口口口口 |----|
17
口口口口 |①---|
口口口口 |----|
口①①口 |②---|
口②②口 |----|
18
口①口口 |①---|
①口口② |----|
口口③口 |②---|
口口口口 |③---|
19
口口口口 |①---|
②②口口 |----|
③③口口 |②---|
口①口口 |③---|
20
口口①口 |①---|
口口②① |----|
口口口口 |②---|
口口口口 |----|
21
口④口口 |①---|
口③口口 |②---|
口②口口 |③---|
口①口口 |④---|
22
②口口口 |①---|
口③口口 |----|
口口口① |②---|
口口①口 |③---|
23
口口③口 |①---|
口④口② |②---|
口口①口 |③---|
口口口口 |④---|
24
口口口口 |①---|
口口口口 |----|
②②口口 |②---|
①①口口 |----|
25
②②口口 |①---|
①①口口 |----|
口口口口 |②---|
口口口口 |----|
26
口口口口 |①---|
口口②① |----|
口口②① |②---|
口口口口 |----|
27
口口口口 |①---|
①②口口 |----|
①②口口 |②---|
口口口口 |----|
28
口②②口 |①---|
口口口口 |----|
口口口口 |②---|
口①①口 |----|
29
口口口口 |①---|
①口③口 |②---|
口②口④ |③---|
口口口口 |④---|
30
②口口口 |①---|
口③口口 |----|
口口口口 |②---|
口①①口 |③---|
31
口口③口 |①---|
口④口② |②---|
口口①口 |③---|
口口口口 |④---|
32
口口口口 |①---|
口口口口 |----|
②②口口 |②---|
①①口口 |----|
33
②②口口 |①---|
①①口口 |----|
口口口口 |②---|
口口口口 |----|
34
口口口口 |①---|
②②②口 |----|
口口口口 |②---|
口①①① |----|
35
②②②口 |①---|
口口口口 |----|
口①①① |②---|
口口口口 |----|
36
口口口① |①---|
②口口① |----|
②口口① |②---|
②口口口 |----|
37
口①①口 |①---|
口②②口 |②---|
口③③口 |③---|
口④④口 |④---|
38
口口③口 |①---|
②口口③ |②---|
口口口① |③---|
口口口口 |----|
39
口口口口 |①---|
口口口口 |----|
口①口口 |②---|
口口②口 |----|
40
口④口口 |①---|
③口口口 |②---|
口②口口 |③---|
①口口口 |④---|
41
口口口口 |①---|
口口①口 |②---|
口口②口 |③---|
口④③口 |④---|
42
口口口口 |①---|
①口口口 |----|
①口②② |②---|
口口口口 |----|
43
口②②口 |①---|
口①①口 |----|
口口口口 |②---|
口③③口 |③---|
44
口口口口 |①---|
③②口口 |----|
口口口① |②---|
口口口口 |③---|
45
口口口口 |①---|
口口口口 |②---|
①②③④ |③---|
口口口口 |④---|
46
口①①口 |①---|
口①①口 |----|
口口口口 |②---|
②②②② |----|
47
口口②口 |①---|
口口口口 |----|
口①口口 |②---|
口口口口 |----|
48
①口口口 |①---|
口口②口 |----|
①口口口 |②---|
口口②口 |----|
49
口口口② |①---|
口①口口 |----|
口口口② |②---|
口①口口 |----|
50
①口口口 |①---|
②③口口 |②---|
口④口口 |③---|
口口口口 |④---|
51
口口口① |①---|
口口③② |②---|
口口④口 |③---|
口口口口 |④---|
52
口口口口 |①---|
①口口口 |②---|
②③口口 |③---|
口④口口 |④---|
53
口口口口 |①---|
口口口① |②---|
口③③② |③---|
口口口口 |----|
54
口口口口 |①---|
口①①口 |----|
②③口口 |②---|
口口口口 |③---|
55
口口口口 |①---|
口口口口 |----|
口口①口 |②---|
②口口② |----|
56
①口口① |①---|
口②口口 |----|
口口③口 |②---|
口口口口 |③---|
57
口口口口 |①---|
口口口口 |----|
口③口口 |②---|
口①②口 |③---|
58
口口口口 |①---|
②口①口 |----|
③口口口 |②---|
口口口口 |③---|
59
口口口口 |①---|
口口口② |----|
口口口口 |②---|
①口口口 |----|
60
口口口口 |①---|
口口口口 |----|
口①口口 |----|
口口口口 |----|
61
口口口口 |①---|
②口口② |----|
口口口口 |②---|
口①①口 |----|
62
口口口口 |①---|
口①①口 |----|
②③口口 |②---|
口口口口 |③---|
63
口口口口 |①---|
口口口口 |----|
口口①口 |②---|
②口口② |----|
64
①口口① |①---|
口②口口 |----|
口口③口 |②---|
口口口口 |③---|
65
口口①① |①---|
口口口口 |----|
口③口口 |②---|
口口②口 |③---|
66
口口口口 |①---|
②口①口 |----|
③口口口 |②---|
口口口口 |③---|
67
口口口口 |①---|
口口口② |----|
口口口口 |②---|
①口口口 |----|
68
口口口口 |①---|
口口口口 |----|
口①口口 |----|
口口口口 |----|
69
口口口口 |①---|
口②②口 |----|
口口口口 |②---|
口①①口 |----|
70
口口口口 |①---|
①口口③ |②---|
②口口④ |③---|
口口口口 |④---|
71
口口口口 |①---|
口②②口 |----|
口口口口 |②---|
口①①口 |----|
72
①口口口 |①---|
②口口口 |②---|
③④口口 |③---|
口口口口 |④---|
73
口口口口 |①---|
②口口② |----|
口口口口 |②---|
口①①口 |----|
74
口口口口 |①---|
口④③口 |②---|
口②①口 |③---|
口口口口 |④---|
75
口口①① |①---|
口口口口 |----|
口③③口 |②---|
口②②口 |③---|
76
口④④口 |①---|
①口口① |②---|
口口口口 |③---|
②③③② |④---|
77
口口口口 |①---|
口口①口 |----|
口②口口 |②---|
口口口口 |----|
78
口口口口 |①---|
口口口口 |②---|
口口口口 |③---|
④③②① |④---|
79
口口口口 |①---|
②①①② |----|
②①①② |②---|
口口口口 |----|

不確定度: 0

最終更新:2014年12月11日 23:01