aura
Expander

ADVANCED

Level: 6
BPM: 175
Notes: 397

1
③③口口 |----|
口口口口 |----|
口口②口 |--①②|
口①口口 |③---|
2
口口①⑤ |①---|
②口口① |--②-|
口④口口 |③-④-|
口口③口 |⑤---|
3
③③口口 |①---|
口口口口 |--②-|
口口②② |----|
①①口口 |③---|
4
口口口口 |①---|
②①①口 |----|
口口口③ |②-③-|
口④⑤口 |④-⑤-|
5
口口口口 |----|
口口口④ |----|
口②③口 |①-②-|
①口口口 |③-④-|
6
①口口口 |①---|
口口②口 |----|
口③口口 |②---|
口口口口 |③---|
7
口口口口 |①---|
②口口口 |--②-|
口口③口 |----|
口口口① |③---|
8
口口口口 |----|
口口口口 |----|
口口口口 |----|
口①口口 |--①-|
9
口口口口 |①---|
口口①口 |----|
口②口口 |②---|
口口口口 |----|
10
口口①⑤ |①---|
②口口① |--②-|
口④口口 |③-④-|
口口③口 |⑤---|
11
口口口口 |①---|
口口口口 |--②-|
③③②② |----|
①①口口 |③---|
12
口口口口 |①---|
口①①口 |----|
口口口口
口口口口

口口口口
②口⑤口
口口口③ |②-③-|
口④口口 |④-⑤-|
13
口口口口 |----|
口口口④ |----|
口②③口 |①-②-|
①口口口 |③-④-|
14
①口口口 |①---|
口②口口 |----|
口口③口 |----|
口口口口 |②-③-|
15
口口口口 |①---|
②口口口 |--②-|
口口③口 |----|
口①口口 |③---|
16
口口口口 |----|
口口口口 |----|
口口口口 |----|
口①口口 |--①-|
17
口口口口 |①---|
口口①口 |----|
口②口口 |②---|
口口口口 |----|
18
②口口② |①---|
口口口口 |----|
①口③① |②---|
口口口口 |③---|
19
口①②口 |①-②-|
口③④口 |③-④-|
口⑤⑥口 |⑤-⑥-|
口⑦⑧口 |⑦-⑧-|
20
①口口口 |①---|
③④⑤⑥ |②---|
口口口② |③-④-|
口口口口 |⑤-⑥-|
21
口口口口 |----|
口口口口 |①---|
口口口口 |②---|
①②③口 |③---|
22
口口口② |①---|
口③④口 |②---|
①⑤⑥口 |③-④-|
口口口口 |⑤-⑥-|
23
③⑤⑤口 |①-②-|
口④④口 |③---|
口口口② |④---|
①口口口 |⑤---|
24
口口口口 |①---|
口口口口 |----|
②口口② |②---|
口①①口 |----|
25
口口口口 |①-②-|
①⑥③⑧ |③-④-|
⑤②⑦④ |⑤-⑥-|
口口口口 |⑦-⑧-|
26
口①①口 |①---|
③口口口 |----|
口口口口 |②---|
口②②口 |③---|
27
⑤口口口 |①-②-|
口口口口 |③---|
口③②① |④---|
④口口口 |⑤---|
28
口口⑥⑥ |①---|
⑤①口口 |②-③-|
④口口口 |④-⑤-|
口口③② |--⑥-|
29
口口口口 |①-②-|
④口②④ |③---|
⑤①③⑤ |④---|
口口口口 |⑤---|
30
口②③口 |①---|
口④⑤口 |----|
口口口口 |②-③-|
口①①口 |④-⑤-|
31
②口口④ |①---|
口口口口 |②---|
口①口③ |③---|
口口口口 |④---|
32
口⑦口⑧ |①-②-|
⑤口⑥口 |③-④-|
口③口④ |⑤-⑥-|
①口②口 |⑦-⑧-|
33
口④②口 |①---|
口口口口 |②---|
口③①口 |③---|
口口口口 |④---|
34
口口②② |①---|
口③口口 |----|
口口口口 |②---|
①①口口 |③---|
35
口⑥口口 |①-②-|
口口口口 |③-④-|
①②③④ |⑤---|
口⑤口口 |⑥---|
36
口口口口 |①---|
口①①口 |----|
口口口口 |②---|
②口③口 |③---|
37
口①②口 |①-②-|
口③④口 |③-④-|
口⑤⑥口 |⑤-⑥-|
口⑦⑧口 |⑦-⑧-|
38
口口口② |①---|
③口口③ |②---|
口④④口 |③---|
①口口口 |--④-|
39
口①口口 |①---|
口口②口 |②---|
③口口口 |③---|
口口④口 |④---|
40
口⑧④口 |①-②-|
⑦口口③ |③-④-|
口⑥②口 |⑤-⑥-|
⑤口口① |⑦-⑧-|
41
口口口口 |①---|
口①①口 |----|
口口口口 |②---|
口②②口 |----|
42
①口口① |①---|
口②③口 |②-③-|
口④⑤口 |④-⑤-|
口⑥⑦口 |⑥-⑦-|
43
口口口④ |①---|
②口口口 |②---|
口口口③ |③---|
①口口口 |④---|
44
口⑤⑧口 |①-②-|
口①④口 |③-④-|
口③②口 |⑤-⑥-|
口⑦⑥口 |⑦-⑧-|
45
①口口口 |①---|
②口口口 |②---|
③口口口 |③---|
④口口口 |④---|
46
口口口口 |①---|
②①①② |----|
②①①② |②---|
口口口口 |----|
47
口①口口 |①---|
口口口口 |----|
口口口口 |②---|
口口②口 |----|
48
口口口口 |①---|
口口③③ |②---|
口口口口 |③---|
①②口口 |----|
49
口口③③ |①---|
口口口口 |②---|
①②口口 |③---|
口口口口 |----|
50
①口口口 |①---|
②口口口 |②---|
③口④口 |③-④-|
⑤口口口 |⑤---|
51
口口口① |①---|
口口口② |②---|
口④口③ |③-④-|
口口口⑤ |⑤---|
52
①口口① |①---|
②口口② |②---|
③口口③ |③---|
④口口④ |④---|
53
口①①口 |①---|
口②②口 |②---|
口③③口 |③---|
口口口口 |----|
54
口口①⑤ |①---|
②口口① |--②-|
口④口口 |③-④-|
口口③口 |⑤---|
55
③③口口 |①---|
口口口口 |--②-|
口口②② |----|
①①口口 |③---|
56
口口口口 |①---|
②①①口 |----|
口口口③ |②-③-|
口④⑤口 |④-⑤-|
57
口口口口 |----|
口口口④ |----|
口②③口 |①-②-|
①口口口 |③-④-|
58
①口口口 |①---|
口口②口 |----|
口③口口 |②---|
口口口口 |③---|
59
口口口口 |①---|
②口口口 |--②-|
口口③口 |----|
口口口① |③---|
60
①②③④ |----|
口口口口 |--①-|
口口口口 |②-③-|
口⑤口口 |④-⑤-|
61
口口口口 |①---|
口口①口 |----|
口②口口 |②---|
口口口口 |----|
62
口口①⑤ |①---|
②口口① |--②-|
口④口口 |③-④-|
口口③口 |⑤---|
63
口口口口 |①---|
口口口口 |--②-|
③③②② |----|
①①口口 |③---|
64
口口口口 |①---|
口①①口 |----|
口口口口
口口口口

口口口口
②口⑤口
口口口③ |②-③-|
口④口口 |④-⑤-|
65
口①①口 |----|
口口口⑤ |①---|
口③④口 |②-③-|
②口口口 |④-⑤-|
66
①口口口 |①---|
口②口口 |----|
口口③口 |----|
口口口口 |②-③-|
67
口口口口 |①---|
②口口口 |--②-|
口口③口 |----|
口①口口 |③---|
68
①②③④ |----|
口口口口 |--①-|
口口口口 |②-③-|
口⑤口口 |④-⑤-|
69
口口口口 |①---|
口口①口 |----|
口②口口 |②---|
口口口口 |----|
70
口①③口 |①---|
口口口口 |②---|
②口口④ |③---|
口口口口 |④---|
71
口口口口 |①---|
口①①③ |----|
口口④口 |②---|
②②口口 |③-④-|
72
②口口③ |①---|
口口口口 |②---|
口①口口 |③---|
口口口④ |④---|
73
⑥⑥口口 |①---|
口①①⑤ |②-③-|
②口④口 |④-⑤-|
口③口口 |--⑥-|
74
口口口口 |--①-|
口③①口 |②---|
口②④口 |③-④-|
口⑤口口 |⑤---|
75
②②口口 |①---|
③③口口 |----|
①口口① |②---|
口口口口 |③---|
76
口口④口 |①---|
口口口③ |②---|
口口②口 |③---|
口口口① |④---|
77
口⑦口⑧ |①-②-|
⑤口⑥口 |③-④-|
口③口④ |⑤-⑥-|
①口②口 |⑦-⑧-|
78
①口口口 |①---|
口②口口 |②---|
口口③口 |③---|
口口口④ |④---|
79
②口口② |①---|
口口口口 |----|
口②②口 |②---|
口①①口 |----|

不確定度: 0

最終更新:2014年12月11日 23:01