マーメイド
T!P

EXTREME

Level: 8
BPM: 154
Notes: 464

1
口口口口 |----|
口口口口 |----|
口口口口 |----|
口口口口 |----|
2
③口⑤① |①-②-|
④口⑥② |--③-|
④口⑥② |④---|
③口⑤① |⑤-⑥-|
3
口①口⑤ |--①-|
③②⑤③ |②---|
③②口③ |③---|
④①口口 |④-⑤-|
4
⑥①口口 |--①-|
⑤⑥口口 |②-③-|
口口②口 |④-⑤-|
口③④口 |--⑥-|
5
口口①口 |--①-|
口口口口 |②-③-|
②口口口
口口口③

口口⑥⑤
口口口⑥
口口口口 |④-⑤-|
④口口口 |--⑥-|
6
口口口口 |--①-|
口①⑤口 |②---|
④口②口 |--③-|
口口口③ |④-⑤-|
7
口①②④ |①---|
口口④口 |--②-|
口口口口 |----|
③口口口 |③-④-|
8
⑥①口口 |--①-|
⑤⑥口口 |②-③-|
口口②口 |④-⑤-|
口③④口 |--⑥-|
9
口口①口 |--①-|
口口口口 |②-③-|
②口口口
口口口③

口口⑥⑤
口口口⑥
口口口口 |④-⑤-|
④口口口 |--⑥-|
10
口口口⑤ |--①-|
口①口口 |②---|
④口②口 |--③-|
口口口③ |④-⑤-|
11
口①口口 |①---|
①③④口 |--②-|
口⑤⑥② |----|
口口②口 |③④⑤⑥|
12
口④口口 |①---|
口口⑤口 |--②-|
口口口口 |--③-|
①②口③ |④-⑤-|
13
口口口口 |①---|
口②口口 |②-③-|
口口③① |----|
口口口口 |----|
14
口口口① |①---|
口②口口 |--②-|
口口口口 |--③-|
口④③口 |④---|
15
口口口口 |--①-|
①口口口 |②---|
口口口② |----|
口口口口 |----|
16
口口④口 |①---|
口⑤②口 |--②-|
口口口① |--③-|
③口①口 |④-⑤-|
17
口口口口 |①---|
口口②口 |②-③-|
①③口口
口口口口

口⑤口口
口⑤口④
⑤口④口 |--④-|
口口④口 |--⑤-|
18
口口口口 |----|
口口口口 |----|
①口口口 |----|
口①口口 |--①-|
19
口②①口 |①---|
②⑤⑥① |②-③-|
口⑦⑧③ |--④-|
口口③④ |⑤⑥⑦⑧|
20
口④口口 |①---|
口口⑤口 |--②-|
口口口口 |--③-|
①②口③ |④-⑤-|
21
口口口口 |①---|
口②口口 |②-③-|
口口③① |----|
口口口口 |----|
22
口口口① |①---|
口②③口 |--②-|
口④口口 |--③-|
⑤口口口 |④-⑤-|
23
口口口口 |--①-|
①口口口 |②---|
口口口② |----|
口口口口 |----|
24
口口④口 |①---|
口⑤②口 |--②-|
口口口① |--③-|
③口①口 |④-⑤-|
25
口口口口 |①---|
口口②口 |②-③-|
①③口口 |--④-|
口④④口 |----|
26
①④②① |①---|
口口⑤口 |②-③-|
口③③口 |--④-|
⑥口口⑥ |⑤-⑥-|
27
⑦⑧⑨⑨ |----|
口⑥⑤④ |①②③-|
①②③口 |④⑤⑥-|
口口口口 |⑦⑧⑨-|
28
⑥⑥口口 |--①-|
口口④③ |②-③-|
口口口① |④-⑤-|
口口②⑤ |--⑥-|
29
口⑥⑥口 |--①-|
①④口口 |②-③-|
⑤口口口 |④-⑤-|
③②口口 |--⑥-|
30
⑥口口口 |--①-|
口口①口 |②-③-|
口②⑤⑦ |④-⑤-|
口④③口 |⑥-⑦-|
31
口口④④ |--①-|
口口口口 |②---|
①口口口 |③---|
口③③② |--④-|
32
④④口口 |--①-|
口口②② |②---|
口口③③ |③---|
口口口① |--④-|
33
口口④口 |--①-|
②②口口 |②---|
③③口口 |③---|
①④口口 |--④-|
34
④⑥⑦⑤ |--①-|
①②③① |②-③-|
口③②口 |④-⑤-|
⑤⑦⑥④ |⑥-⑦-|
35
④口口口 |--①-|
①③③② |②-③-|
②口口① |----|
口口口⑤ |④-⑤-|
36
口①②口 |①②③④|
③⑤⑥④ |⑤⑥⑦⑧|
⑦口口⑧
口口口口

⑮⑮口口
⑮口口口
口⑨⑩口 |⑨⑩⑪⑫|
⑬⑪⑫⑭ |⑬⑭⑮-|
37
口口⑥⑥ |--①-|
口①②⑥ |②-③-|
⑤②③④ |④---|
口⑤④口 |⑤-⑥-|
38
⑥⑥口口 |--①-|
⑥②①口 |②-③-|
④③②⑤ |④---|
口④⑤口 |⑤-⑥-|
39
口口②⑦ |--①-|
口①③⑥ |②-③-|
②③④⑤ |④-⑤-|
⑦⑥⑤口 |⑥-⑦-|
40
口①口口 |--①-|
①口②口 |②---|
口②口口
口口口口

④④口口
④口口口
口口③口 |③---|
口口口口 |--④-|
41
口口⑥⑥ |--①-|
口①②⑥ |②-③-|
⑤②③④ |④---|
口⑤④口 |⑤-⑥-|
42
⑥⑥口口 |--①-|
⑥②①口 |②-③-|
④③②⑤ |④---|
口④⑤口 |⑤-⑥-|
43
口口①① |----|
口②②① |①---|
③⑤⑤③ |②-③-|
口④④口 |④-⑤-|
44
④④口① |----|
口口②口 |--①-|
口④口③ |②-③-|
口口口口 |--④-|
45
口口⑥⑥ |----|
口③②① |--①②|
⑤口⑥口 |③-④-|
口口口④ |⑤-⑥-|
46
口口口口 |----|
④④①口 |----|
口②口③ |①-②-|
口④口口 |③-④-|
47
⑥⑥①口 |--①-|
口④③③ |②-③-|
②⑥⑤口 |--④-|
口口③口 |⑤-⑥-|
48
④④口口 |--①-|
④口口① |②---|
口口③口 |③---|
②口口口 |--④-|
49
口口⑥⑥ |--①-|
口①②⑥ |②-③-|
⑤②③④ |④---|
口⑤④口 |⑤-⑥-|
50
口口口口 |--①-|
口②①口 |②-③-|
④③②口 |④---|
口④口口 |----|
51
③①口② |①-②-|
①③②口 |--③-|
口②③①
②口①③

口⑤④⑥
⑤口⑥④
④⑥口⑤ |④---|
⑥④⑤口 |⑤-⑥-|
52
口口②⑥ |--①-|
③①⑥口 |②---|
③⑤①③ |③---|
口③③④ |④⑤⑥-|
53
⑥①口口 |--①-|
⑤⑥口口 |②-③-|
口口②口 |④-⑤-|
口③④口 |--⑥-|
54
口口①口 |--①-|
口口口口 |②-③-|
②口口口
口口口③

口口⑥⑤
口口口⑥
口口口口 |④-⑤-|
④口口口 |--⑥-|
55
口口口口 |--①-|
口①⑤口 |②---|
④口②口 |--③-|
口口口③ |④-⑤-|
56
口①④口 |①---|
口口口口 |--②-|
口口口口 |--③-|
口③口② |④---|
57
③①口② |①-②-|
①③②口 |--③-|
口②③①
②口①③

口⑤④⑥
⑤口⑥④
④⑥口⑤ |④---|
⑥④⑤口 |⑤-⑥-|
58
④口②口 |--①-|
③①⑤口 |②---|
③⑥①③ |③---|
口③③⑦ |④⑤⑥⑦|

不確定度: 0

最終更新:2014年12月11日 23:01