THIS NIGHT (jubeat EDITION)
TЁЯRA

BASIC

Level: 2
BPM: 160
Notes: 177

1
口口①口 |----|
口口口口 |----|
口口口口 |----|
口口口口 |①---|
2
口口口口 |①---|
口①①口 |----|
口口口口 |----|
口口口口 |----|
3
口口口口 |①---|
口口口口 |②---|
口①③口 |③---|
口②④口 |④---|
4
口口口口 |①---|
口口口口 |----|
口口口口 |----|
①口口① |----|
5
口口口口 |①---|
口口口口 |----|
①口口① |----|
口口口口 |----|
6
口①①口 |①---|
口口口口 |----|
口口口口 |----|
口口口口 |----|
7
口口口口 |①---|
口①②口 |②---|
口③④口 |③---|
口口口口 |④---|
8
口口口口 |①---|
口口口口 |----|
口口口口 |----|
口①①口 |----|
9
口口口口 |①---|
口口口口 |----|
①口口① |----|
口口口口 |----|
10
口口口口 |①---|
口①①口 |----|
口口口口 |----|
口口口口 |----|
11
口口口口 |①---|
口口口口 |②---|
口①③口 |③---|
口②④口 |④---|
12
口口口口 |①---|
口口口口 |----|
口口口口 |----|
①口口① |----|
13
口口口口 |①---|
口口口口 |----|
①口口① |----|
口口口口 |----|
14
口①①口 |①---|
口口口口 |----|
口口口口 |----|
口口口口 |----|
15
口口口口 |①---|
口①②口 |②---|
口③④口 |③---|
口口口口 |④---|
16
口口口口 |①---|
口口口口 |----|
口口口口 |----|
口①①口 |----|
17
口口口口 |①---|
口口口口 |----|
口口口口 |----|
①口口① |----|
18
口口口口 |①---|
①口②口 |----|
口口口口 |②---|
口口口口 |----|
19
口口口口 |①---|
口口口口 |----|
口口口① |----|
口口口口 |----|
20
口口口口 |①---|
口②口① |----|
口口口口 |②---|
口口口口 |----|
21
口口口口 |①---|
口口口口 |----|
①口口口 |----|
口口口口 |----|
22
口口口口 |①---|
口口口口 |----|
①口②口 |②---|
口口口口 |----|
23
口口口口 |①---|
口口口口 |----|
口口口口 |----|
口口口① |----|
24
口口口口 |①---|
口口口口 |----|
口②口① |②---|
口口口口 |----|
25
口口口口 |①---|
口口口口 |----|
②口口口 |②---|
①口口口 |----|
26
②口口口 |①---|
①口口口 |----|
口口口口 |②---|
口口口口 |----|
27
口①口口 |①---|
口②口口 |----|
口口口口 |②---|
口口口口 |----|
28
口口口② |①---|
口口口① |----|
口口口口 |②---|
口口口口 |----|
29
口口①口 |①---|
口口②口 |----|
口口口口 |②---|
口口口口 |----|
30
口口口口 |①---|
口口口口 |----|
①②口口 |②---|
口口口口 |----|
31
口口口口 |①---|
口口口口 |----|
口口①口 |②---|
口口口② |----|
32
口口口口 |①---|
口口口口 |----|
口口②① |②---|
口口口口 |----|
33
口口口口 |①---|
②①口口 |----|
口口口口 |②---|
口口口口 |----|
34
口口口口 |①---|
口口口口 |----|
①①口口 |----|
口口口口 |----|
35
口口口口 |①---|
口口口口 |----|
口口口口 |----|
①①口口 |----|
36
口口口口 |①---|
口口口口 |----|
口口口口 |----|
口口①① |----|
37
口口口口 |①---|
口口口口 |----|
口口①① |----|
口口口口 |----|
38
口口口口 |①---|
口①①口 |----|
口口口口 |----|
口口口口 |----|
39
口①①口 |①---|
口口口口 |----|
口口口口 |----|
口口口口 |----|
40
口口口口 |①---|
①口口① |----|
口口口口 |----|
口口口口 |----|
41
口口口口 |①---|
口③④口 |②---|
①②口口 |③---|
口口口口 |④---|
42
口口口口 |①---|
口口口口 |----|
口口①口 |----|
口口口口 |----|
43
口口口口 |①---|
口④③② |②---|
口口口① |③---|
口口口口 |④---|
44
口口口口 |①---|
口口口口 |----|
口①①口 |----|
口口口口 |----|
45
口口口口 |①---|
口口口口 |②---|
口①③口 |③---|
口②④口 |④---|
46
口口口口 |①---|
口口口口 |----|
口口口口 |----|
①口口① |----|
47
口口口口 |①---|
口口口口 |----|
①口口① |----|
口口口口 |----|
48
口①①口 |①---|
口口口口 |----|
口口口口 |----|
口口口口 |----|
49
口口口口 |①---|
口①②口 |②---|
口③④口 |③---|
口口口口 |④---|
50
口口口口 |①---|
口口口口 |----|
口口口口 |----|
口①①口 |----|
51
口口口口 |①---|
口口口口 |----|
①口口① |----|
口口口口 |----|
52
口口口口 |①---|
口①①口 |----|
口口口口 |----|
口口口口 |----|
53
口口口口 |①---|
口口口口 |②---|
口①③口 |③---|
口②④口 |④---|
54
口口口口 |①---|
口口口口 |----|
口口口口 |----|
①口口① |----|
55
口口口口 |①---|
口口口口 |----|
①口口① |----|
口口口口 |----|
56
口①①口 |①---|
口口口口 |----|
口口口口 |----|
口口口口 |----|
57
口口口口 |①---|
口①②口 |②---|
口③④口 |③---|
口口口口 |④---|
58
口口口口 |①---|
口口口口 |----|
口口口口 |----|
口①①口 |----|
59
口口口口 |①---|
①②③④ |②---|
口口口口 |③---|
口口口口 |④---|
60
口口口口 |①---|
口口口口 |----|
口①①口 |----|
口口口口 |----|
61
口口口口 |①---|
口口口口 |②---|
口①③口 |③---|
口②④口 |④---|
62
口口口口 |①---|
口口口口 |----|
口口口口 |----|
①口口① |----|
63
口口口口 |①---|
口口口口 |----|
①口口① |----|
口口口口 |----|
64
口①①口 |①---|
口口口口 |----|
口口口口 |----|
口口口口 |----|
65
口口口口 |①---|
口①②口 |②---|
口③④口 |③---|
口口口口 |④---|
66
口口口口 |①---|
口口口口 |----|
口口口口 |----|
口①①口 |----|
67
口口口口 |①---|
口口口口 |----|
①口口① |----|
口口口口 |----|
68
口口口口 |①---|
口①①口 |----|
口口口口 |----|
口口口口 |----|
69
口口口口 |①---|
口口口口 |②---|
口①③口 |③---|
口②④口 |④---|
70
口口口口 |①---|
口口口口 |----|
口口口口 |----|
①口口① |----|
71
口口口口 |①---|
口口口口 |----|
①口口① |----|
口口口口 |----|
72
口①①口 |①---|
口口口口 |----|
口口口口 |----|
口口口口 |----|
73
口口口口 |①---|
口①②口 |②---|
口③④口 |③---|
口口口口 |④---|
74
口口口口 |①---|
口口口口 |----|
口口口口 |----|
口①①口 |----|
75
口口口口 |①---|
口口口口 |----|
口口口口 |----|
①口口① |----|
76
口口口口 |①---|
口口口口 |----|
口①①口 |----|
口口口口 |----|


不确定度: 0

タグ:

+ タグ編集
  • タグ:

このサイトはreCAPTCHAによって保護されており、Googleの プライバシーポリシー利用規約 が適用されます。

最終更新:2012年11月08日 18:38