Dong! Dong!
Star☆T

BASIC

Level: 2
BPM: 210
Notes: 141

1
口口口口 |----|
口口口口 |----|
口口口口 |----|
口口口口 |----|
2
口①①口 |①---|
口②②口 |----|
口口口口 |②---|
口口口口 |----|
3
口口口口 |①---|
口口口口 |----|
口①①口 |②---|
口②②口 |----|
4
①口口① |①---|
②口口② |----|
口口口口 |②---|
口口口口 |----|
5
口口口口 |①---|
口口口口 |----|
①口口① |②---|
②口口② |----|
6
口①①口 |①---|
口②②口 |----|
口口口口 |②---|
口口口口 |----|
7
口口口口 |①---|
口口口口 |----|
口①①口 |②---|
口②②口 |----|
8
①口口① |①---|
②口口② |----|
口口口口 |②---|
口口口口 |----|
9
口口口口 |①---|
口口口口 |----|
①口口① |②---|
②口口② |----|
10
口口口口 |①---|
口口口口 |----|
口①口口 |----|
口口口口 |----|
11
口口口口 |①---|
口口口口 |----|
口口①口 |----|
口口口口 |----|
12
口口口口 |①---|
口①口口 |----|
口口口口 |----|
口口口口 |----|
13
口口口口 |①---|
口口①口 |----|
口口口口 |----|
口口口口 |----|
14
口①口口 |①---|
口口口口 |----|
口口口口 |----|
口口口口 |----|
15
口口①口 |①---|
口口口口 |----|
口口口口 |----|
口口口口 |----|
16
①口口口 |①---|
②口口口 |----|
口口口口 |②---|
口口口口 |----|
17
口口口口 |①---|
口口口口 |----|
①口口口 |②---|
②口口口 |----|
18
口口口口 |①---|
口②口口 |----|
口口①口 |②---|
口口口口 |----|
19
口②①口 |①---|
口口口口 |----|
口口口口 |②---|
口口口口 |----|
20
口口口口 |①---|
口口①口 |----|
口②口口 |②---|
口口口口 |----|
21
口口口口 |①---|
口口口口 |----|
口口口口 |----|
口口①口 |----|
22
口口口口 |----|
口口口口 |----|
口口口口 |①---|
①口口口 |----|
23
口口口口 |①---|
口口口口 |----|
口口口口 |②---|
口①②口 |----|
24
口口口口 |①---|
口口口口 |----|
口②口口 |②---|
口口口① |----|
25
口口口口 |----|
口口口口 |----|
口口口口 |----|
口口口口 |----|
26
口口口口 |----|
口口口口 |----|
口口口① |①---|
口口口口 |----|
27
口口口② |①---|
①口口口 |----|
口口口口 |②---|
口口口口 |----|
28
口①口口 |①---|
口口②口 |----|
口口口口 |②---|
口口口口 |----|
29
口口口口 |①---|
口口口口 |----|
口①口口 |②---|
口口②口 |----|
30
口口口口 |①---|
口口口口 |----|
口口口口 |----|
口①口口 |----|
31
口口口口 |----|
口口口口 |----|
①口口口 |①---|
口口口口 |----|
32
口口口口 |①---|
口口口口 |----|
口①②口 |②---|
口口口口 |----|
33
口口口口 |----|
口口口口 |----|
口口口口 |----|
口口口口 |----|
34
口口②① |①---|
口口口口 |----|
口口口口 |②---|
口口口口 |----|
35
②①口口 |①---|
口口口口 |----|
口口口口 |②---|
口口口口 |----|
36
口口口口 |①---|
①口口口 |----|
②口口口 |②---|
口口口口 |----|
37
口口口口 |----|
口口口口 |----|
口口口口 |----|
口口口口 |----|
38
口口口口 |①---|
口口口口 |----|
口口口口 |②---|
①②口口 |----|
39
口口口口 |①---|
口口口口 |----|
口口口口 |②---|
口口①② |----|
40
口口口口 |①---|
口口口② |----|
口口口① |②---|
口口口口 |----|
41
口口②① |①---|
口口口口 |----|
口口口口 |②---|
口口口口 |----|
42
口①口口 |①---|
口口口口 |----|
口口②口 |②---|
口口口口 |----|
43
口口口口 |①---|
口口②口 |----|
口①口口 |②---|
口口口口 |----|
44
口口②口 |①---|
口①口口 |----|
口口口口 |②---|
口口口口 |----|
45
口①口口 |①---|
口口口② |----|
口口口口 |②---|
口口口口 |----|
46
口口口口 |①---|
口口口口 |----|
口口①口 |----|
口口口口 |----|
47
口口口口 |----|
口口口口 |----|
口口口口 |----|
口口口口 |----|
48
口口口口 |①---|
口口口口 |----|
口②口口 |②---|
①口口口 |----|
49
口口口② |①---|
口口①口 |----|
口口口口 |②---|
口口口口 |----|
50
①口口口 |①---|
口②口口 |----|
口口口口 |②---|
口口口口 |----|
51
口口口口 |①---|
口口口口 |----|
口口①口 |②---|
口口口② |----|
52
口口口口 |①---|
口口口口 |----|
②口口② |②---|
口①①口 |----|
53
口口口口 |①---|
口①②③ |②---|
口口口口 |③---|
口口口口 |----|
54
口口口口 |①---|
口口口口 |----|
②口口② |②---|
口①①口 |----|
55
口口口口 |①---|
③②①口 |②---|
口口口口 |③---|
口口口口 |----|
56
口口口口 |①---|
口口口口 |----|
口①①口 |----|
口口口口 |----|
57
口口口口 |①---|
口①①口 |----|
口口口口 |----|
口口口口 |----|
58
口①①口 |①---|
口口口口 |----|
口口口口 |----|
口口口口 |----|
59
①口口① |①---|
口口口口 |----|
口口口口 |----|
口口口口 |----|
60
口口口口 |①---|
口口口口 |----|
②口口② |②---|
口①①口 |----|
61
口口口口 |①---|
口①②③ |②---|
口口口口 |③---|
口口口口 |----|
62
口口口口 |①---|
口口口口 |----|
②口口② |②---|
口①①口 |----|
63
口口口口 |①---|
③②①口 |②---|
口口口口 |③---|
口口口口 |----|
64
口口口口 |①---|
口口口口 |----|
口①①口 |----|
口口口口 |----|
65
口口口口 |----|
口口口口 |----|
口口口口 |----|
口口口口 |----|
66
②①①② |①---|
口口口口 |----|
口口口口 |----|
口口口口 |②---|
67
口口口口 |----|
口①口口 |----|
口口口口 |①---|
口口口口 |----|
68
口口口口 |①---|
口口口口 |----|
口口①口 |----|
口口口口 |----|
69
口口口口 |----|
口口口口 |----|
口口口口 |----|
口口口口 |----|
70
口口口口 |----|
口口口口 |----|
口口口口 |----|
口口口口 |----|
71
口口口口 |----|
口口①口 |----|
口口口口 |----|
口口口口 |①---|

不確定度: 0

最終更新:2014年12月11日 22:54