Dong! Dong!
Star☆T
ADVANCED
Level: 5
BPM: 210
Notes: 217
1
口口口口 |----|
口口口口 |----|
口口口口 |----|
口口口口 |----|
2
口口③③ |①---|
口口口口 |②---|
口口②口 |③---|
口口①口 |----|
3
③③口口 |①---|
口口口口 |②---|
口②口口 |③---|
口①口口 |----|
4
口口①口 |①---|
口口②口 |②---|
口口口口 |③---|
口口③③ |----|
5
口①口口 |①---|
口②口口 |②---|
口口口口 |③---|
③③口口 |----|
6
口口③③ |①---|
口口口口 |②---|
口口②口 |③---|
口口①口 |----|
7
③③口口 |①---|
口口口口 |②---|
口②口口 |③---|
口①口口 |----|
8
口口①口 |①---|
口口②口 |②---|
口口口口 |③---|
口口③③ |----|
9
口①口口 |①---|
口②口口 |②---|
口口口口 |③---|
③③口口 |----|
10
口口口口 |①---|
口口①口 |----|
口口①口 |----|
口口口口 |----|
11
口口口口 |①---|
口①口口 |----|
口①口口 |----|
口口口口 |----|
12
口口口口 |①---|
口口口① |----|
口口口① |----|
口口口口 |----|
13
口口口口 |①---|
①口口口 |----|
①口口口 |----|
口口口口 |----|
14
口口①① |①---|
口口口口 |----|
口口口口 |----|
口口口口 |----|
15
①①口口 |①---|
口口口口 |----|
口口口口 |----|
口口口口 |----|
16
口口口口 |①---|
口②②口 |----|
口口①口 |②---|
口口口口 |----|
17
④④④④ |①---|
③③③口 |②---|
口②②口 |③---|
口口①口 |④---|
18
口口口口 |----|
口口口① |①---|
口口②口 |②---|
口③口口 |③---|
19
口口口口 |①---|
口④③口 |②---|
口②口口 |③---|
口口①口 |④---|
20
①口②口 |①---|
口口口口 |②---|
口③③口 |----|
口口口口 |③---|
21
口口口口 |----|
口口口口 |----|
口口口口 |----|
口口口口 |----|
22
口口口① |----|
口口②口 |①---|
口③口口 |②---|
口口口口 |③---|
23
口口口口 |①---|
口④口口 |②---|
口口③口 |③---|
口②①口 |④---|
24
口口口① |①---|
口口②口 |②---|
口③口口 |③---|
④口口口 |④---|
25
口口口口 |----|
口口口口 |----|
口口口口 |----|
口口口口 |----|
26
口口口口 |----|
口口①口 |①---|
口②口口 |②---|
口口③口 |③---|
27
口口④口 |①---|
口③口口 |②---|
口口②口 |③---|
口①口口 |④---|
28
①②口口 |①---|
口口③④ |②---|
口口口口 |③---|
口口口口 |④---|
29
口口口口 |----|
口口口口 |----|
口②①口 |①---|
口口口口 |②---|
30
口口口口 |----|
口口口口 |----|
口口口口 |----|
口口口口 |----|
31
口口口口 |----|
③口口口 |①---|
②口口口 |②---|
①口口口 |③---|
32
口口口① |①---|
口口口② |②---|
口④口③ |③---|
口口口口 |④---|
33
口口口口 |----|
口口口口 |----|
口口口口 |----|
口口口口 |----|
34
口①口口 |①---|
口口口口 |②---|
口口口口 |③---|
口④③② |④---|
35
口口口口 |①---|
口口口口 |②---|
①②③④ |③---|
口口口口 |④---|
36
口②②口 |①---|
口①口口 |②---|
口口口口 |----|
口口口口 |----|
37
口口口口 |----|
口口口口 |----|
口口口口 |----|
口口口口 |----|
38
口口口口 |----|
口口口口 |①---|
口口口口 |②---|
①②③口 |③---|
39
口口口口 |①---|
口口口口 |②---|
④③②① |③---|
口口口口 |④---|
40
口口①① |①---|
口②③③ |----|
口口口口 |②---|
口口口口 |③---|
41
口口口口 |----|
口口口口 |①---|
口口①口 |②---|
口②③③ |③---|
42
口口口口 |----|
口口③口 |①---|
口②口口 |②---|
①口口口 |③---|
43
②口口① |①---|
口③口口 |②---|
口口④口 |③---|
口口口口 |④---|
44
口口口口 |①---|
口口口口 |②---|
口④口口 |③---|
口②③① |④---|
45
口口口口 |①---|
②口①口 |----|
②口口口 |②---|
口口口口 |----|
46
口口口口 |①---|
口口口① |----|
口口口① |----|
口口口口 |----|
47
口口①口 |----|
口口口口 |----|
口口口口 |----|
口口口口 |①---|
48
口口口口 |①---|
口口①口 |②---|
口②口口 |③---|
口③④口 |④---|
49
口③口④ |①---|
口②口口 |②---|
口口①口 |③---|
口口口口 |④---|
50
①口口口 |①---|
②②口口 |----|
口口口口 |②---|
口口口口 |----|
51
口口口口 |①---|
口口口口 |----|
①①①口 |②---|
②②②② |----|
52
口口口口 |----|
口①②口 |①---|
口①②口 |②---|
口口口口 |----|
53
①口口口 |①---|
口口口② |②---|
③口口口 |③---|
口口口口 |----|
54
口口口口 |----|
口②①口 |①---|
口②①口 |②---|
口口口③ |③---|
55
口口口口 |①---|
口口口口 |②---|
口口口口 |③---|
③②①口 |----|
56
口口口口 |①---|
口口口口 |----|
口①①口 |----|
口②②口 |②---|
57
口口口口 |----|
口口口口 |----|
口口口口 |----|
口口口① |①---|
58
①口口口 |①---|
口②口口 |②---|
口口③口 |③---|
口口口④ |④---|
59
口口口口 |----|
口口口口 |----|
口口口口 |----|
口口口口 |----|
60
口口口口 |----|
口①②口 |①---|
口①②口 |②---|
口口口口 |----|
61
①口口口 |①---|
口口口② |②---|
③口口口 |③---|
口口口口 |----|
62
口口口口 |----|
口②①口 |①---|
口②①口 |②---|
口口口③ |③---|
63
口口口口 |①---|
口口口口 |②---|
口口口④ |③---|
③②①口 |④---|
64
口口口口 |①---|
口①①口 |----|
口口口口 |----|
口口口口 |----|
65
口口口口 |----|
口口口口 |----|
口口口口 |----|
口口口口 |----|
66
口口口① |①---|
口口②口 |②---|
口③口口 |③---|
④口口口 |④---|
67
口口口口 |----|
口①①口 |①---|
口口口口 |----|
口口口口 |----|
68
口①①口 |①---|
口口口口 |----|
口①①口 |----|
口口口口 |----|
69
口口口口 |----|
口口口口 |----|
口口口口 |----|
口口口口 |----|
70
口口口口 |----|
口口口口 |----|
口口口口 |----|
口口口口 |----|
71
口口口口 |----|
口①①口 |----|
口①①口 |----|
口口口口 |①---|
不確定度: 0