Dong! Dong!
Star☆T

EXTREME

Level: 8
BPM: 210
Notes: 404

1
口口口口 |----|
口口口口 |----|
口口口口 |----|
口口口口 |----|
2
口口口② |①---|
口口口口 |②---|
口口③③ |③---|
④口口① |--④-|
3
口①②口 |--①-|
口口口口 |②---|
③③口口 |③---|
口口口口 |----|
4
口口口② |①---|
口口口口 |②---|
口口③③ |③---|
④口口① |--④-|
5
口①②口 |--①-|
③口口③ |②---|
口口口口 |③---|
口④④口 |④---|
6
口口口② |①---|
口口口口 |②---|
口口③③ |③---|
④口口① |--④-|
7
口①②口 |--①-|
口口口口 |②---|
③③口口 |③---|
口口口口 |----|
8
口口口② |①---|
口口口口 |②---|
口口③③ |③---|
④口口① |--④-|
9
口①②口 |--①-|
③口口③ |②---|
口口口口 |③---|
口④④口 |④---|
10
③口口③ |①---|
口①①口 |②---|
①②②① |③---|
④④⑤⑤ |④-⑤-|
11
口③③口 |--①-|
①①②② |②---|
口④④口 |③---|
口口口口 |④---|
12
口口口口 |①---|
④③③⑤ |②---|
①④⑤① |③---|
②①①② |④-⑤-|
13
①口口② |--①-|
口③③口 |②---|
①口口② |③---|
口④④口 |④---|
14
⑤③③④ |①---|
①口口① |②---|
⑤①①④ |③---|
②口口② |④-⑤-|
15
口④④口 |--①-|
②④④① |②---|
口口口口 |③---|
③②①③ |④---|
16
口口口口 |①---|
口口口口 |----|
①②口口 |②---|
口②口口 |----|
17
④③②① |①---|
④③②口 |②---|
④③口口 |③---|
④口口口 |④---|
18
口口②② |①---|
口④⑤③ |②---|
口④⑤③ |③---|
口①①口 |④-⑤-|
19
口②③口 |----|
口口口口 |①---|
②③口口 |②---|
口①①口 |③---|
20
口口口① |①---|
口②②口 |②---|
口口①口 |----|
口③③口 |③---|
21
口口口① |----|
③④口口 |①-②-|
口口②口 |--③-|
口口口口 |④---|
22
口口口② |①---|
④口口⑤ |②---|
④口口⑤ |③---|
③①①口 |④-⑤-|
23
口口口① |----|
口口③口 |①---|
口②口口 |②---|
口口口③ |③---|
24
口③③口 |①---|
②①口口 |②---|
口④④口 |③---|
口②①口 |④---|
25
口口口④ |①---|
口口口③ |②---|
口口口② |③---|
口口口① |④---|
26
口②②口 |①---|
②④⑤③ |②---|
②④⑤③ |③---|
①③③① |④-⑤-|
27
口③口口 |----|
②口口口 |①---|
③口口口 |②---|
口口口① |③---|
28
口口口① |①---|
口②口口 |②---|
口口①③ |③---|
口④④口 |④---|
29
口口口口 |----|
口①①口 |----|
口②②口 |①---|
口口口口 |②---|
30
口口口口 |----|
口口口口 |----|
口口口口 |----|
口口口口 |----|
31
口①②③ |----|
口口口口 |①---|
①②③口 |②---|
口口口口 |③---|
32
口③③口 |①---|
①口口② |②---|
口口口口 |③---|
④②①④ |④---|
33
①口口口 |①---|
②口口口 |②---|
③口口口 |③---|
④口口口 |④---|
34
口口①① |①---|
口②⑤① |②---|
口口③⑤ |③---|
④口口口 |④-⑤-|
35
口③①口 |----|
③②口① |①---|
②口口口 |②---|
口口口口 |③---|
36
口口口④ |①---|
口口口口 |②-③-|
口①①⑤ |--④-|
②口口③ |--⑤-|
37
口②②口 |①---|
口口口口 |②---|
①③③口 |③---|
口口口口 |----|
38
口口口② |①---|
口⑤④口 |②---|
口③口口 |③---|
①口口口 |④-⑤-|
39
①口口口 |----|
口口口② |①---|
③口口口 |②---|
口口口口 |③---|
40
口口②口 |①---|
口口口口 |----|
③③口口 |②---|
口口①① |③---|
41
口口口① |----|
口②口口 |①---|
口口口口 |②---|
口口③③ |③---|
42
①口口口 |----|
口口④口 |①---|
口口口② |②---|
口③口口 |③-④-|
43
口口口口 |----|
①口口口 |①---|
口②口口 |②---|
口口③口 |③---|
44
口口口① |①---|
口②③口 |②-③-|
口口口口 |----|
口④⑤口 |④-⑤-|
45
口口口口 |----|
口口口② |----|
口③口口 |①---|
①口口口 |②-③-|
46
口口口口 |----|
口①①口 |①---|
口口口口 |----|
口口口口 |----|
47
口口口① |----|
口口口① |----|
口口口① |----|
口口口口 |①---|
48
③②①口 |①---|
③②①口 |②---|
③②①口 |③---|
口④④口 |④---|
49
③③④④ |①---|
口②②口 |②---|
口口①① |③---|
口口口口 |④---|
50
口口口口 |①---|
口口口口 |②---|
口③④③ |③---|
①②①口 |④---|
51
口③④③ |①---|
①②①口 |②---|
口口口口 |③---|
口口口口 |④---|
52
①口口④ |①---|
③③②② |②---|
口③②口 |③---|
口口口口 |--④-|
53
口口口口 |--①-|
口③口口 |②---|
口口④口 |③-④-|
口①②口 |----|
54
口口口① |----|
②口⑤口 |①-②-|
口⑥口③ |③-④-|
④口口口 |⑤-⑥-|
55
口②口口 |----|
口口口口 |①---|
①④④口 |②-③-|
口口③口 |--④-|
56
口口口口 |----|
口①①口 |----|
口口口口 |----|
口①①口 |①---|
57
口口口口 |----|
口口口口 |----|
①口口口 |----|
①口口口 |①---|
58
口口②口 |①---|
口①②③ |②---|
口①④③ |③---|
口口④口 |④---|
59
①口口口 |----|
口②口口 |①---|
口口③口 |②---|
口口口口 |③---|
60
口口①① |①---|
口⑥⑤① |②-③-|
口②⑥④ |④-⑤-|
口口③口 |--⑥-|
61
口③口② |----|
口口口口 |①---|
口口口口 |②-③-|
①①口口 |----|
62
口口④④ |----|
口①口② |①---|
①口②口 |②---|
③①口② |③-④-|
63
口口口口 |--①-|
①口口口 |--②-|
口④④② |--③-|
口③口口 |--④-|
64
①口口① |--①-|
口口口口 |----|
口口口口 |----|
口口口口 |----|
65
口口口口 |----|
口口口口 |----|
口口口口 |----|
口口口口 |----|
66
口②①口 |①---|
②①②① |----|
口②①口 |----|
口口口口 |②---|
67
口②②口 |----|
口②口② |①---|
口②②口 |----|
口①①口 |--②-|
68
口口口口 |----|
口口口口 |----|
口口口口 |①---|
①口口口 |----|
69
口口口口 |①---|
口口口口 |----|
口口口口 |②---|
口口②① |----|
70
口口口口 |①---|
口口口口 |----|
口口口口 |②---|
②①口口 |----|
71
⑤②口⑤ |①---|
⑤口③⑤ |--②③|
⑤④口⑤ |④---|
口口口① |⑤---|

不確定度: 0

最終更新:2014年12月11日 22:53