ファントムヴァイブレーション
キュウソネコカミ

BASIC

Level: 4
BPM: 192
Notes: 312

全程BPM在192附近飄忽不定
1
口口口口 |----|
口口口口 |----|
口口口口 |----|
口口口口 |----|
2
①②③④ |①---|
口口口口 |②---|
口口口口 |③---|
口口口口 |④---|
3
口口口口 |①---|
口口②① |②---|
口口口口 |----|
口口口口 |----|
4
口口口口 |①---|
口口口口 |②---|
①②③④ |③---|
口口口口 |④---|
5
口口口口 |①---|
口口口口 |②---|
口口口口 |----|
口口②① |----|
6
④口口口 |①---|
③口口口 |②---|
②口口口 |③---|
①口口口 |④---|
7
口①②口 |①---|
口口口口 |②---|
口口口口 |----|
口口口口 |----|
8
口口口① |①---|
口口口② |②---|
口口口③ |③---|
口口口④ |④---|
9
口口口口 |①---|
口口口口 |②---|
口口口口 |----|
口②①口 |----|
10
④口口口 |①---|
③口口口 |②---|
②口口口 |③---|
①口口口 |④---|
11
口①②口 |①---|
口口口口 |②---|
口口口口 |----|
口口口口 |----|
12
口口口① |①---|
口口口② |②---|
口口口③ |③---|
口口口④ |④---|
13
口口口口 |①---|
口口口口 |②---|
口口口口 |----|
口②①口 |----|
14
口④③口 |①---|
口口②口 |②---|
口口①口 |③---|
口口口口 |④---|
15
口口口口 |①---|
口①口口 |②---|
口②口口 |----|
口口口口 |----|
16
口口口口 |①---|
口①口口 |②---|
口②口口 |③---|
口③④口 |④---|
17
口口口口 |①---|
口口②口 |②---|
口口①口 |----|
口口口口 |----|
18
口口口口 |①---|
口④口口 |②---|
口③②① |③---|
口口口口 |④---|
19
口口口口 |①---|
口口①② |②---|
口口口口 |----|
口口口口 |----|
20
口口口口 |①---|
①②③口 |②---|
口口④口 |③---|
口口口口 |④---|
21
口口口口 |①---|
口口口口 |②---|
②①口口 |----|
口口口口 |----|
22
口口口口 |①---|
口口口口 |②---|
口③④口 |③---|
口①②口 |④---|
23
口口口口 |①---|
口①②口 |②---|
口口口口 |----|
口口口口 |----|
24
口②①口 |①---|
口④③口 |②---|
口口口口 |③---|
口口口口 |④---|
25
口口口口 |①---|
口口口口 |②---|
口②①口 |----|
口口口口 |----|
26
口口口口 |①---|
口口④② |②---|
口口③① |③---|
口口口口 |④---|
27
口口口口 |①---|
口②口口 |②---|
口①口口 |----|
口口口口 |----|
28
口口口口 |①---|
②④口口 |②---|
①③口口 |③---|
口口口口 |④---|
29
口口口口 |①---|
口口②口 |②---|
口口①口 |----|
口口口口 |----|
30
口①①口 |①---|
口口口口 |----|
口口口口 |----|
口口口口 |----|
31
口口口口 |①---|
口①①口 |----|
口口口口 |----|
口口口口 |----|
32
口口口口 |①---|
口口口口 |----|
口①①口 |----|
口口口口 |----|
33
口口口口 |①---|
口口口口 |----|
口口口口 |----|
口①①口 |----|
34
①口口① |①---|
口口口口 |----|
口口口口 |----|
口口口口 |----|
35
口口口口 |①---|
①口口① |----|
口口口口 |----|
口口口口 |----|
36
口口口口 |①---|
口口口口 |----|
①口口① |----|
口口口口 |----|
37
口口口口 |①---|
口口口口 |----|
口口口口 |----|
①口口① |----|
38
口④③口 |①---|
口口②口 |②---|
口口①口 |③---|
口口口口 |④---|
39
口口口口 |①---|
口①口口 |②---|
口②口口 |----|
口口口口 |----|
40
口口口口 |①---|
口①口口 |②---|
口②口口 |③---|
口③④口 |④---|
41
口口口口 |①---|
口口②口 |②---|
口口①口 |----|
口口口口 |----|
42
口口口口 |①---|
口④口口 |②---|
口③②① |③---|
口口口口 |④---|
43
口口口口 |①---|
口口①② |②---|
口口口口 |----|
口口口口 |----|
44
口口口口 |①---|
①②③口 |②---|
口口④口 |③---|
口口口口 |④---|
45
口口口口 |①---|
口口口口 |②---|
②①口口 |----|
口口口口 |----|
46
口口口口 |①---|
口口口口 |----|
口口②口 |②---|
口口①口 |----|
47
口口②口 |①---|
口口①口 |----|
口口口口 |②---|
口口口口 |----|
48
口口口口 |①---|
口口口口 |----|
口②口口 |②---|
口①口口 |----|
49
口②口口 |①---|
口①口口 |----|
口口口口 |②---|
口口口口 |----|
50
口口口口 |①---|
口口口口 |----|
口口口② |②---|
口口口① |----|
51
口口口② |①---|
口口口① |----|
口口口口 |②---|
口口口口 |----|
52
口口口口 |①---|
口口口口 |----|
②口口口 |②---|
①口口口 |----|
53
②口口口 |①---|
①口口口 |----|
口口口口 |②---|
口口口口 |----|
54
口口②① |①---|
口口③④ |②---|
口口口口 |③---|
口口口口 |④---|
55
口口口口 |①---|
口口口口 |②---|
口口②① |③---|
口口③④ |④---|
56
口口口口 |①---|
口口口口 |②---|
④③口口 |③---|
①②口口 |④---|
57
口①①口 |①---|
口②②口 |②---|
口③③口 |③---|
口④④口 |④---|
58
①②口口 |①---|
④③口口 |②---|
口口口口 |③---|
口口口口 |④---|
59
口口口口 |①---|
口口口口 |②---|
①②口口 |③---|
④③口口 |④---|
60
口口口口 |①---|
口口口口 |②---|
口口③④ |③---|
口口②① |④---|
61
口①①口 |①---|
口②②口 |②---|
口③③口 |③---|
口④④口 |④---|
62
口口③② |①---|
口口④① |②---|
口口口口 |③---|
口口口口 |④---|
63
口口口口 |①---|
口口口口 |②---|
口口①④ |③---|
口口②③ |④---|
64
口口口口 |①---|
口口口口 |②---|
④①口口 |③---|
③②口口 |④---|
65
口①①口 |①---|
口②②口 |②---|
口③③口 |③---|
口④④口 |④---|
66
②③口口 |①---|
①④口口 |②---|
口口口口 |③---|
口口口口 |④---|
67
口口口口 |①---|
口口口口 |②---|
④①口口 |③---|
③②口口 |④---|
68
口口口口 |①---|
口口口口 |②---|
口口①④ |③---|
口口②③ |④---|
69
口①①口 |①---|
口②②口 |②---|
口③③口 |③---|
口④④口 |④---|
70
口口口口 |①---|
口口口口 |----|
①口口① |----|
口口口口 |----|
71
口口口口 |①---|
口口口① |----|
口口口口 |----|
口口口口 |----|
72
口口口① |①---|
口口口口 |----|
口口口口 |----|
口口口口 |----|
73
口①①口 |①---|
口②②口 |②---|
口③③口 |③---|
口④④口 |④---|
74
口口口口 |①---|
口口口口 |----|
①口口① |----|
口口口口 |----|
75
口口口口 |①---|
①口口口 |----|
口口口口 |----|
口口口口 |----|
76
①口口口 |①---|
口口口口 |----|
口口口口 |----|
口口口口 |----|
77
口①①口 |①---|
口②②口 |②---|
口③③口 |③---|
口④④口 |④---|
78
④口口口 |①---|
口口口③ |②---|
②口口口 |③---|
口口口① |④---|
79
口口口① |①---|
②口口口 |②---|
口口口③ |③---|
④口口口 |④---|
80
口④口口 |①---|
口口③口 |②---|
口②口口 |③---|
口口①口 |④---|
81
口口①口 |①---|
口②口口 |②---|
口口③口 |③---|
口口口口 |----|
82
④口口口 |①---|
口口口③ |②---|
②口口口 |③---|
口口口① |④---|
83
口口口① |①---|
②口口口 |②---|
口口口③ |③---|
④口口口 |④---|
84
口④口口 |①---|
口口③口 |②---|
口②口口 |③---|
口口①口 |④---|
85
口口①口 |①---|
口②口口 |②---|
口口③口 |③---|
口④口口 |④---|
86
口口②① |①---|
③④口口 |②---|
口口口口 |③---|
口口口口 |④---|
87
口口口口 |①---|
口口口口 |②---|
口口②① |③---|
口③③口 |----|
88
①②口口 |①---|
口口④③ |②---|
口口口口 |③---|
口口口口 |④---|
89
口口口口 |①---|
口口口口 |②---|
①②口口 |③---|
口③③口 |----|
90
口口②① |①---|
③④口口 |②---|
口口口口 |③---|
口口口口 |④---|
91
口口口口 |①---|
口口口口 |②---|
口口②① |③---|
口③③口 |----|
92
①②口口 |①---|
口口④③ |②---|
口口口口 |③---|
口口口口 |④---|
93
口口口口 |①---|
口口口口 |②---|
①②口口 |③---|
口③③口 |----|
94
口口口口 |①---|
口口口口 |----|
口口②① |②---|
口口口口 |----|
95
口口口口 |①---|
口②②口 |----|
口①口口 |----|
口口口口 |②---|

不確定度: 0

最終更新:2014年12月11日 22:49