my cosmic world
silQ

BASIC

Level: 3
BPM: 138
Notes: 211

1
口口口口 |----|
口口口口 |----|
口口口口 |----|
口口口口 |----|
2
口口口口 |①---|
③④②① |②---|
口口口口 |③---|
口口口口 |④---|
3
口口口口 |①---|
口口口口 |----|
口②①口 |②---|
口①②口 |----|
4
口口口口 |①---|
①②④③ |②---|
口口口口 |③---|
口口口口 |④---|
5
口口口口 |①---|
口口口口 |----|
口①②口 |②---|
口②①口 |----|
6
③④口口 |①---|
②口口口 |②---|
①口口口 |③---|
口口口口 |④---|
7
口口①口 |①---|
口②口口 |②---|
口口③口 |③---|
口④口口 |④---|
8
口口④③ |①---|
口口口② |②---|
口口口① |③---|
口口口口 |④---|
9
口①口口 |①---|
口口②口 |②---|
口③口口 |③---|
口口④口 |④---|
10
口②口口 |①---|
口①口口 |----|
口口口口 |②---|
口口口口 |----|
11
口口①口 |①---|
口口口口 |----|
口口口口 |----|
口口口口 |----|
12
口口口口 |①---|
口口口口 |----|
口口①口 |②---|
口口②口 |----|
13
口口口口 |①---|
口口口口 |----|
口口口口 |----|
口①口口 |----|
14
①②口口 |①---|
口口口口 |----|
口口口口 |②---|
口口口口 |----|
15
口口①口 |①---|
口口口口 |----|
口口口口 |----|
口口口口 |----|
16
口口口口 |①---|
口①①口 |----|
口②②口 |②---|
口口口口 |----|
17
口口口口 |①---|
口口口口 |----|
口口口口 |----|
口①①口 |----|
18
口口口口 |①---|
口②③④ |②---|
口①①口 |③---|
口口口口 |④---|
19
口①口口 |①---|
口②口口 |②---|
口口口口 |----|
口口口口 |----|
20
口口口口 |①---|
口口口口 |②---|
④③②① |③---|
口口口口 |④---|
21
口口口口 |①---|
口口口口 |②---|
口口②口 |----|
口口①口 |----|
22
口口口口 |①---|
①②③④ |②---|
口口口口 |③---|
口口口口 |④---|
23
口①口口 |①---|
口②口口 |②---|
口口口口 |----|
口口口口 |----|
24
②②①① |①---|
口口口口 |----|
口口口口 |②---|
口口口口 |----|
25
口口口口 |①---|
口①①口 |----|
口口口口 |----|
口口口口 |----|
26
口口口口 |①---|
②④口口 |②---|
①③口口 |③---|
口口口口 |④---|
27
口口口口 |①---|
口口②口 |②---|
口口①口 |----|
口口口口 |----|
28
口①①口 |①---|
口口口口 |----|
口口口口 |----|
口口口口 |----|
29
口口口口 |①---|
①口口① |----|
口②②口 |②---|
口口口口 |----|
30
口口口口 |①---|
口口④② |②---|
口口③① |③---|
口口口口 |④---|
31
口口口口 |①---|
④②口口 |②---|
③①口口 |③---|
口口口口 |④---|
32
口①①口 |①---|
口口口口 |----|
口口口口 |----|
口口口口 |----|
33
口口口口 |①---|
口①口口 |②---|
口口②口 |③---|
口③口口 |----|
34
口③③口 |----|
口②②口 |①---|
口①①口 |②---|
口口口口 |③---|
35
①④④① |①---|
口③③口 |②---|
口②②口 |③---|
口口口口 |④---|
36
①口口① |①---|
口口②口 |----|
口口②口 |②---|
口口口口 |----|
37
口口口口 |①---|
口①口口 |----|
口①口口 |②---|
②口口② |----|
38
口④④口 |①---|
口③③口 |②---|
口②②口 |③---|
口①①口 |④---|
39
①④④① |①---|
口③③口 |②---|
口②②口 |③---|
口口口口 |④---|
40
①口口① |①---|
口口口口 |----|
口②②口 |②---|
口口口口 |----|
41
①口口① |①---|
口口口口 |----|
口口口口 |②---|
口②②口 |----|
42
④口口④ |①---|
③口口③ |②---|
②口口② |③---|
①口口① |④---|
43
④①①④ |①---|
③口口③ |②---|
②口口② |③---|
口口口口 |④---|
44
口①①口 |①---|
口口②口 |----|
口口②口 |②---|
口口口口 |----|
45
口口口口 |①---|
口①口口 |----|
②①口② |②---|
口口口口 |----|
46
①口口① |①---|
口②②口 |----|
口口口口 |②---|
口口口口 |----|
47
口口口口 |①---|
口②②口 |----|
口①①口 |②---|
口口口口 |----|
48
①口口① |①---|
口口口口 |----|
口口口口 |----|
口口口口 |----|
49
口口口口 |①---|
③④②① |②---|
口口口口 |③---|
口口口口 |④---|
50
口口口口 |①---|
口口口口 |----|
口②①口 |②---|
口①②口 |----|
51
口口口口 |①---|
①②④③ |②---|
口口口口 |③---|
口口口口 |④---|
52
口口口口 |①---|
口口口口 |----|
口①②口 |②---|
口②①口 |----|
53
③④口口 |①---|
②口口口 |②---|
①口口口 |③---|
口口口口 |④---|
54
口口①口 |①---|
口②口口 |②---|
口口③口 |③---|
口④口口 |④---|
55
口口④③ |①---|
口口口② |②---|
口口口① |③---|
口口口口 |④---|
56
口①口口 |①---|
口口②口 |②---|
口③口口 |③---|
口口④口 |④---|
57
口口口口 |①---|
口①①口 |----|
口口口口 |----|
口口口口 |----|

不確定度: 0

最終更新:2014年12月11日 22:51