ファントムヴァイブレーション
キュウソネコカミ

ADVANCED

Level: 7
BPM: 192
Notes: 548

全程BPM在192附近飄忽不定
1
口口口口 |----|
口口口口 |----|
口口口口 |----|
口口口口 |----|
2
口口①口 |①---|
口②口口 |②---|
口口③口 |③---|
口④口口 |④---|
3
口口口口 |①---|
口口口② |②---|
口口口口 |----|
口口口① |----|
4
口①口口 |①---|
口口②口 |②---|
口③口口 |③---|
口口④口 |④---|
5
口口口口 |①---|
②口口口 |②---|
口口口口 |----|
①口口口 |----|
6
口②口④ |①---|
口口口口 |②---|
①口③口 |③---|
口口口口 |④---|
7
口口口口 |①---|
口②①口 |②---|
口口口口 |----|
口口口口 |----|
8
④口②口 |①---|
口口口口 |②---|
口③口① |③---|
口口口口 |④---|
9
口口口口 |①---|
口①②口 |②---|
口口口口 |----|
口口口口 |----|
10
口口口口 |①---|
口②口④ |②---|
口口口口 |③---|
①口③口 |④---|
11
口口口口 |①---|
口口口口 |②---|
口②①口 |----|
口口口口 |----|
12
口口口口 |①---|
④口②口 |②---|
口口口口 |③---|
口③口① |④---|
13
口口口口 |①---|
口口口口 |②---|
口①②口 |----|
口口口口 |----|
14
①②④③ |①---|
①②④③ |②---|
口口口口 |③---|
口口口口 |④---|
15
口口口口 |①---|
口口口口 |②---|
口①①口 |----|
口②②口 |----|
16
③④②① |①---|
③④②① |②---|
口口口口 |③---|
口口口口 |④---|
17
口口口口 |①---|
口口口口 |②---|
口①①口 |----|
口②②口 |----|
18
口口口口 |①---|
④④②② |②---|
①①③③ |③---|
口口口口 |④---|
19
②①①② |①---|
口口口口 |②---|
口口口口 |----|
口口口口 |----|
20
口口口口 |①---|
②②④④ |②---|
③③①① |③---|
口口口口 |④---|
21
②①①② |①---|
口口口口 |②---|
口口口口 |----|
口口口口 |----|
22
口口口口 |①---|
口口口口 |②---|
③④④① |③---|
③②②① |④---|
23
口①①口 |①---|
口②②口 |②---|
口口口口 |----|
口口口口 |----|
24
口口口口 |①---|
口口口口 |②---|
①④④③ |③---|
①②②③ |④---|
25
口①①口 |①---|
口②②口 |②---|
口口口口 |----|
口口口口 |----|
26
②口口③ |①---|
②口口③ |②---|
①口口④ |③---|
①口口④ |④---|
27
口口口口 |①---|
口②②口 |②---|
口①①口 |----|
口口口口 |----|
28
③口口② |①---|
③口口② |②---|
④口口① |③---|
④口口① |④---|
29
口口口口 |①---|
口②②口 |②---|
口①①口 |----|
口口口口 |----|
30
①口口① |①---|
口②②口 |----|
口③③口 |②---|
口口口口 |③---|
31
口口口口 |①---|
②口口② |----|
口口口口 |②---|
①口口① |----|
32
①口口① |①---|
口②②口 |----|
口③③口 |②---|
口口口口 |③---|
33
口口口口 |①---|
口口口口 |----|
口口口口 |----|
①口口① |----|
34
①口口① |①---|
口②②口 |----|
口③③口 |②---|
口口口口 |③---|
35
口口口口 |①---|
②口口② |----|
口口口口 |②---|
①口口① |----|
36
①口口① |①---|
口②②口 |----|
口③③口 |②---|
口口口口 |③---|
37
①口口① |①---|
口口口口 |----|
口口口口 |----|
口口口口 |----|
38
②口口④ |①---|
①口口③ |②---|
口口口口 |③---|
口口口口 |④---|
39
口口口口 |①-②-|
口口口口 |③-④-|
口①②口 |----|
口③④口 |----|
40
④口口② |①---|
③口口① |②---|
口口口口 |③---|
口口口口 |④---|
41
口口口口 |①-②-|
口口口口 |③-④-|
口②①口 |----|
口④③口 |----|
42
口口口口 |①---|
①②④③ |②---|
口口口口 |③---|
口口口口 |④---|
43
口口口口 |①-②-|
口口口口 |③-④-|
①口②口 |----|
③口④口 |----|
44
口口口口 |①---|
③④②① |②---|
口口口口 |③---|
口口口口 |④---|
45
口口口口 |①-②-|
口口口口 |③-④-|
口②口① |----|
口④口③ |----|
46
口口⑥③ |①-②-|
口口⑤② |③---|
口口④① |④-⑤-|
口口口口 |⑥---|
47
口口口口 |①---|
口口口口 |②-③-|
①口口④ |④---|
⑤③⑥② |⑤-⑥-|
48
口①②口 |①-②-|
口③④口 |③-④-|
口⑤⑥口 |⑤-⑥-|
口⑦⑧口 |⑦-⑧-|
49
口⑥⑤口 |①---|
口④③口 |②---|
②口口① |③-④-|
口口口口 |⑤-⑥-|
50
口口口口 |①---|
口口口口 |②-③-|
④口口① |④---|
②⑥③⑤ |⑤-⑥-|
51
口②①口 |①-②-|
口④③口 |③-④-|
口⑥⑤口 |⑤-⑥-|
口⑧⑦口 |⑦-⑧-|
52
⑧口口⑦ |①-②-|
⑥口口⑤ |③-④-|
④口口③ |⑤-⑥-|
②口口① |⑦-⑧-|
53
口②①口 |①-②-|
口③③口 |③---|
口④④口 |④---|
口口口口 |----|
54
①②口口 |①-②-|
口口④③ |③-④-|
⑤⑥口口 |⑤-⑥-|
口口⑧⑦ |⑦-⑧-|
55
口口⑧⑦ |①-②-|
⑤⑥口口 |③-④-|
口口④③ |⑤-⑥-|
①②口口 |⑦-⑧-|
56
口①⑧口 |①-②-|
口⑦②口 |③-④-|
口③⑥口 |⑤-⑥-|
口⑤④口 |⑦-⑧-|
57
①口口① |①---|
③口口③ |②---|
④口口④ |③---|
②口口② |④---|
58
口口②⑥ |①-②-|
口口①⑤ |③-④-|
⑧④口口 |⑤-⑥-|
⑦③口口 |⑦-⑧-|
59
④⑧口口 |①-②-|
③⑦口口 |③-④-|
口口⑥② |⑤-⑥-|
口口⑤① |⑦-⑧-|
60
口口口口 |①-②-|
②口口① |③-④-|
④⑧⑦③ |⑤-⑥-|
口⑥⑤口 |⑦-⑧-|
61
①口口① |①---|
③口口③ |②---|
④口口④ |③---|
②口口② |④---|
62
①②口口 |①-②-|
⑤⑥口口 |③-④-|
口口④⑧ |⑤-⑥-|
口口③⑦ |⑦-⑧-|
63
口口④③ |①-②-|
口口⑧⑦ |③-④-|
②⑥口口 |⑤-⑥-|
①⑤口口 |⑦-⑧-|
64
口⑤⑥口 |①-②-|
口⑦⑧口 |③-④-|
③口口④ |⑤-⑥-|
①口口② |⑦-⑧-|
65
①口口① |①---|
③口口③ |②---|
④口口④ |③---|
②口口② |④---|
66
口口②⑥ |①-②-|
口口①⑤ |③-④-|
⑦⑧口口 |⑤-⑥-|
③④口口 |⑦-⑧-|
67
⑧④口口 |①-②-|
⑦③口口 |③-④-|
口口⑥⑤ |⑤-⑥-|
口口②① |⑦-⑧-|
68
口⑧③口 |①-②-|
口④①口 |③-④-|
口②⑤口 |⑤-⑥-|
口⑥⑦口 |⑦-⑧-|
69
①口口① |①---|
③口口③ |②---|
④口口④ |③---|
②口口② |④---|
70
②①①② |①---|
口口口口 |----|
口口口口 |----|
口口口口 |②---|
71
口口口口 |①---|
口④口口 |----|
①口③① |②---|
口②②口 |③-④-|
72
口口口口 |----|
口口口口 |----|
口口口口 |----|
口口口口 |----|
73
①口口① |①---|
③口口③ |②---|
④口口④ |③---|
②口口② |④---|
74
口口口口 |①---|
口①①⑥ |②-③-|
⑦③②口 |④-⑤-|
口⑤④口 |⑥-⑦-|
75
口⑤口口 |①---|
口口④口 |----|
口③口口 |②-③-|
口口②① |④-⑤-|
76
口口①口 |----|
口②口口 |----|
口口③口 |--①-|
口口口口 |②-③-|
77
①口口① |①---|
③口口③ |②---|
④口口④ |③---|
②口口② |④---|
78
①①③③ |①---|
口④②口 |②---|
口②④口 |③---|
口口口口 |④---|
79
口口口口 |①---|
口④②口 |②---|
口②④口 |③---|
①①③③ |④---|
80
①口口② |①---|
①口口② |②---|
③口口④ |③---|
③口口④ |④---|
81
口口口口 |①---|
口①①口 |②---|
口②②口 |③---|
口③③口 |----|
82
③③①① |①---|
口②④口 |②---|
口④②口 |③---|
口口口口 |④---|
83
口口口口 |①---|
口②④口 |②---|
口④②口 |③---|
③③①① |④---|
84
②口口① |①---|
②口口① |②---|
④口口③ |③---|
④口口③ |④---|
85
口①①口 |①---|
口②②口 |②---|
口③③口 |③---|
口④④口 |④---|
86
②口口① |①-②-|
④口口③ |③-④-|
⑥口口⑤ |⑤-⑥-|
⑧口口⑦ |⑦-⑧-|
87
口④④口 |①-②-|
口口③口 |③---|
口②口口 |④---|
口口①口 |----|
88
①口口⑧ |①-②-|
⑦口口② |③-④-|
③口口⑥ |⑤-⑥-|
⑤口口④ |⑦-⑧-|
89
口①②口 |①-②-|
口③口口 |③---|
口④④口 |④---|
口口口口 |----|
90
②口口① |①-②-|
④口口③ |③-④-|
⑥口口⑤ |⑤-⑥-|
⑧口口⑦ |⑦-⑧-|
91
口④④口 |①-②-|
口口③口 |③---|
口②口口 |④---|
口口①口 |----|
92
⑦⑧口口 |①-②-|
口口⑥⑤ |③-④-|
③④口口 |⑤-⑥-|
口口②① |⑦-⑧-|
93
口口①口 |①-②-|
口②口口 |③---|
口口③口 |④---|
口④④口 |----|
94
口口口口 |①---|
②③④口 |②---|
①口口口 |③---|
口口口口 |④---|
95
口口口口 |①---|
口③③① |②---|
口③③② |----|
口口口口 |③---|

不確定度: 0

最終更新:2014年12月11日 22:48