my cosmic world
silQ

ADVANCED

Level: 6
BPM: 138
Notes: 321

1
口口口口 |----|
口口口口 |----|
口口口口 |----|
口口口口 |----|
2
①口③口 |①---|
①口③口 |②---|
口②口④ |③---|
口②口④ |④---|
3
①口口① |①---|
口口口口 |----|
口②②口 |②---|
口口口口 |----|
4
口③口① |①---|
口③口① |②---|
④口②口 |③---|
④口②口 |④---|
5
①口口① |①---|
口口口口 |----|
口②②口 |②---|
口口口口 |----|
6
口①①④ |①---|
口口③口 |②---|
口口口② |③---|
口口口口 |④---|
7
口①①口 |①---|
口②②口 |--②-|
口③③口 |----|
口口口口 |③---|
8
③口口口 |----|
口②口口 |①---|
①口口口 |②---|
口口口口 |③---|
9
口①①口 |①---|
口②②口 |--②-|
口口口口 |----|
③口口③ |③---|
10
口口口③ |----|
口口口② |①---|
口口口① |②---|
口口口口 |③---|
11
口口口口 |①-②-|
①②③口 |③---|
口口口口 |----|
口口口口 |----|
12
③口口口 |----|
②口口口 |①---|
①口口口 |②---|
口口口口 |③---|
13
口口口口 |①-②-|
口③②① |③---|
口口口口 |----|
口口口口 |----|
14
口口口③ |----|
口口口② |①---|
口口口① |②---|
口口口口 |③---|
15
口⑥⑤④ |①-②-|
①②③口 |③---|
口口口口 |--④-|
口口口口 |⑤-⑥-|
16
口口口口 |--①-|
①②③口 |②-③-|
口⑥⑤④ |--④-|
口口口口 |⑤-⑥-|
17
口口口口 |----|
口口口口 |----|
口口口口 |----|
口口口口 |----|
18
口口口④ |①---|
口口口③ |②---|
口①①② |③---|
口口口口 |④---|
19
口口口口 |①-②-|
①②③口 |③---|
①②③口 |----|
口口口口 |----|
20
③口口口 |----|
②口口口 |①---|
①口口口 |②---|
口口口口 |③---|
21
口口口口 |①-②-|
口③②① |③---|
口③②① |----|
口口口口 |----|
22
口口口③ |----|
口口口② |①---|
口口口① |②---|
口口口口 |③---|
23
口⑥⑤④ |①-②-|
①②③口 |③---|
①②③口 |--④-|
口口口口 |⑤-⑥-|
24
口口口口 |--①-|
①②③口 |②-③-|
口⑥⑤④ |--④-|
口口口口 |⑤-⑥-|
25
口口口口 |----|
口口口口 |----|
口口口口 |----|
口口口口 |----|
26
口口口口 |①-②-|
⑦⑤③① |③-④-|
口口口口 |⑤-⑥-|
⑧⑥④② |⑦-⑧-|
27
⑥④口⑥ |①-②-|
⑤口③⑤ |③-④-|
口②口口 |--⑤-|
口口①口 |⑥---|
28
口口口口 |----|
口口口口 |----|
口①口口 |----|
口口口口 |--①-|
29
口口口口 |①---|
口④③② |②-③-|
口口①口 |④---|
口口口口 |----|
30
口口口口 |①-②-|
①③⑤⑦ |③-④-|
口口口口 |⑤-⑥-|
②④⑥⑧ |⑦-⑧-|
31
①③⑤口 |①-②-|
口⑦⑦口 |③-④-|
②④⑥口 |⑤-⑥-|
口口口口 |--⑦-|
32
口口口口 |----|
口口口口 |----|
口口①口 |----|
口口口口 |--①-|
33
口口口口 |①---|
②③④口 |②-③-|
口①口口 |④---|
口口口口 |----|
34
口⑥⑥口 |----|
口⑤⑤口 |①-②-|
①②④③ |③-④-|
口口口口 |⑤-⑥-|
35
⑥⑤⑤⑥ |----|
①口③口 |①-②-|
口②口④ |③-④-|
口口口口 |⑤-⑥-|
36
口口口口 |----|
②③③① |①-②-|
②口口① |--③-|
口④④口 |--④-|
37
口③③口 |--①-|
①口口① |②---|
②口口② |----|
口口口口 |③---|
38
口口口口 |①---|
口口口② |②-③-|
口①①口
口口③口

口⑦⑦口
口④口口
口⑥⑥口 |④-⑤-|
⑤口口口 |⑥-⑦-|
39
①⑤⑤口 |----|
口②口口 |①-②-|
⑥口④⑥ |③-④-|
口口口③ |⑤-⑥-|
40
④口口④ |--①-|
口①①口 |②---|
口③③口 |--③-|
②口口② |--④-|
41
口口口口 |--①-|
②口③① |②---|
②③口① |----|
口口口口 |③---|
42
口口②② |①---|
③①口口 |②-③-|
③口①口
口口口口

口口⑦口
口⑦口④
口⑥口④ |④-⑤-|
⑤⑤⑥口 |⑥-⑦-|
43
①①口口 |----|
口口口② |①-②-|
口口口②
口口口口

口⑥口口
③口⑥口
③口⑤口 |③-④-|
口⑤④④ |⑤-⑥-|
44
口口口① |----|
③③口① |①-②-|
④口②② |--③-|
④口口口 |--④-|
45
口口②① |----|
口口②① |①-②-|
口口口口
口口口口

④口口④
口口口口
口③③口 |--③-|
口口口口 |--④-|
46
口口口口 |----|
口口③③ |----|
②②口口 |--①-|
口口①① |②-③-|
47
①①口口 |①---|
口口口口 |----|
口口口口
口口口口

③口口③
口口口口
口②②口 |----|
口口口口 |②-③-|
48
口口口口 |--①-|
①口口① |--②-|
②口口② |--③-|
③④④③ |--④-|
49
口①①口 |--①-|
②口口② |②---|
②口口② |----|
口口口口 |----|
50
①口口① |①---|
口口口口 |----|
口②②口 |②---|
口口口口 |----|
51
口③口① |①---|
口③口① |②---|
④口②口 |③---|
④口②口 |④---|
52
①口口① |①---|
口口口口 |----|
口②②口 |②---|
口口口口 |----|
53
口①①④ |①---|
口口③口 |②---|
口口口② |③---|
口口口口 |④---|
54
口①①口 |①---|
口②②口 |--②-|
口③③口 |----|
口口口口 |③---|
55
③口口口 |----|
口②口口 |①---|
①口口口 |②---|
口口口口 |③---|
56
口①①口 |①---|
口②②口 |--②-|
口口口口 |----|
③口口③ |③---|
57
口口口口 |①---|
口①①口 |----|
口①①口 |----|
口口口口 |----|

不確定度: 0

最終更新:2014年12月11日 22:47