もったいないとらんど
きゃりーぱみゅぱみゅ

BASIC

Level: 2
BPM: 160
Notes: 202

1
口口口口 |----|
口口口口 |----|
口口口口 |----|
口口口口 |----|
2
口口口口 |----|
口口口口 |----|
口口口口 |----|
口口口口 |----|
3
口口口口 |----|
口口口口 |----|
口口口口 |----|
口口口口 |----|
4
口口口口 |①---|
口口②② |----|
口口口口 |②---|
口口①① |----|
5
口口口口 |①---|
②②口口 |----|
口口口口 |②---|
①①口口 |----|
6
口口口口 |①---|
口口口口 |②---|
④③②① |③---|
口口口口 |④---|
7
口口口口 |①---|
口①①口 |----|
口口口口 |----|
口口口口 |----|
8
口口口口 |①---|
②②口口 |----|
口口口口 |②---|
①①口口 |----|
9
口口口口 |①---|
口口②② |----|
口口口口 |②---|
口口①① |----|
10
口口口口 |①---|
口口口口 |②---|
①②③④ |③---|
口口口口 |④---|
11
口口口口 |①---|
口①①口 |----|
口口口口 |----|
口口口口 |----|
12
口口口口 |①---|
④③②① |②---|
口口口口 |③---|
口口口口 |④---|
13
口口口口 |①---|
口口口口 |②---|
①口口口 |----|
②口口口 |----|
14
口④口口 |①---|
口口③口 |②---|
口②口口 |③---|
口口①口 |④---|
15
口口①口 |①---|
口口②口 |②---|
口③口口 |③---|
口口④口 |④---|
16
口口口口 |①---|
②②口口 |----|
口口口口 |②---|
①①口口 |----|
17
口口②② |①---|
口口口口 |----|
口口①① |②---|
口口口口 |----|
18
口口口口 |①---|
②①口口 |②---|
③④口口 |③---|
口口口口 |④---|
19
口口口口 |①---|
口口④③ |②---|
口口①② |③---|
口口口口 |④---|
20
口①①口 |①---|
口口口口 |----|
口口口口 |----|
口口口口 |----|
21
口口口口 |----|
口口口口 |----|
口口口口 |----|
口口口口 |----|
22
口口口口 |①---|
②口口口 |----|
①口口口 |②---|
口口口口 |----|
23
口口口口 |①---|
口①口③ |②---|
口口②口 |③---|
口口口口 |----|
24
口口口口 |①---|
口口口② |----|
口口口① |②---|
口口口口 |----|
25
口口口口 |①---|
③口①口 |②---|
口②口口 |③---|
口口口口 |----|
26
口口口口 |①---|
②口口口 |----|
①口口口 |②---|
口口口口 |----|
27
口口口口 |①---|
口①口③ |②---|
口口②口 |③---|
口口口口 |----|
28
口口口口 |①---|
口口口② |----|
口口口① |②---|
口口口口 |----|
29
口口口口 |①---|
③口①口 |②---|
口②口口 |③---|
口口口口 |----|
30
口口口口 |①---|
口①②口 |----|
口口口口 |②---|
口口口口 |----|
31
口口口口 |①---|
口口口口 |②---|
口③口① |③---|
口口②口 |----|
32
口口口口 |①---|
口口口口 |----|
口②①口 |②---|
口口口口 |----|
33
口②口口 |①---|
①口③口 |②---|
口口口口 |③---|
口口口口 |----|
34
口口口口 |①---|
口①②口 |----|
口口口口 |②---|
口口口口 |----|
35
口口口口 |①---|
口口口口 |②---|
口③口① |③---|
口口②口 |----|
36
口口口口 |①---|
口口口口 |----|
口②①口 |②---|
口口口口 |----|
37
口②口口 |①---|
①口③口 |②---|
口口口口 |③---|
口口口口 |----|
38
口口口口 |①---|
口口口口 |----|
①口口口 |②---|
口②口口 |----|
39
口口口口 |①---|
口口口口 |----|
口口口② |②---|
口口①口 |----|
40
口口②口 |①---|
口口口① |----|
口口口口 |②---|
口口口口 |----|
41
口①口口 |①---|
②口口口 |----|
口口口口 |②---|
口口口口 |----|
42
口口口口 |①---|
口口口口 |----|
口口口口 |②---|
口②①口 |----|
43
口口口口 |①---|
口口口口 |----|
口②①口 |②---|
口口口口 |----|
44
口②②口 |①---|
口①①口 |----|
口口口口 |②---|
口口口口 |----|
45
①口口① |①---|
②口口② |----|
口口口口 |②---|
口口口口 |----|
46
口口口口 |①---|
口口口口 |----|
①②②① |②---|
口口口口 |----|
47
口口口口 |①---|
口①①口 |----|
口口口口 |----|
口口口口 |----|
48
口口口口 |----|
口口口口 |----|
口口口口 |----|
口口口口 |----|
49
口口口口 |①---|
口口②② |----|
口口口口 |②---|
口口①① |----|
50
口口口口 |①---|
②②口口 |----|
口口口口 |②---|
①①口口 |----|
51
口口口口 |①---|
口口口口 |②---|
④③②① |③---|
口口口口 |④---|
52
口口口口 |①---|
口①①口 |----|
口口口口 |----|
口口口口 |----|
53
口口口口 |①---|
②②口口 |----|
口口口口 |②---|
①①口口 |----|
54
口口口口 |①---|
口口②② |----|
口口口口 |②---|
口口①① |----|
55
口口口口 |①---|
口口口口 |②---|
①②③④ |③---|
口口口口 |④---|
56
口口口口 |①---|
口①①口 |----|
口口口口 |----|
口口口口 |----|
57
口口口口 |①---|
④③②① |②---|
口口口口 |③---|
口口口口 |④---|
58
口口口口 |①---|
口口口口 |②---|
①口口口 |----|
②口口口 |----|
59
口④口口 |①---|
口口③口 |②---|
口②口口 |③---|
口口①口 |④---|
60
口口①口 |①---|
口口②口 |②---|
口③口口 |③---|
口口④口 |④---|
61
口口口口 |①---|
②②口口 |----|
口口口口 |②---|
①①口口 |----|
62
口口②② |①---|
口口口口 |----|
口口①① |②---|
口口口口 |----|
63
口口口口 |①---|
②①口口 |②---|
③④口口 |③---|
口口口口 |④---|
64
口口口口 |①---|
口口④③ |②---|
口口①② |③---|
口口口口 |④---|
65
口①①口 |①---|
口②口口 |----|
口口口口 |②---|
口口口口 |----|
66
口口口口 |①---|
口口①口 |----|
口②口口 |②---|
口口口口 |----|
67
口口口口 |①---|
口口口口 |----|
口口①口 |②---|
口②口口 |----|
68
口口口口 |①---|
口口口口 |----|
口口口口 |②---|
②口①口 |----|
69
口口口口 |①---|
口口口口 |----|
②口口口 |②---|
口口口① |----|
70
口口口口 |①---|
②口口口 |----|
口口口① |②---|
口口口口 |----|
71
②口口口 |①---|
口口口① |----|
口口口口 |②---|
口口口口 |----|
72
口②口① |①---|
口口口口 |----|
口口口口 |②---|
口口口口 |----|
73
口口①口 |①---|
口口口口 |----|
口口口口 |----|
口口口口 |----|

不確定度: 0

最終更新:2014年12月11日 22:46