my cosmic world
silQ

EXTREME

Level: 8
BPM: 138
Notes: 576

1
口口口口 |----|
口口口口 |----|
口口口口 |----|
口口口口 |----|
2
⑧⑥口⑧ |①-②③|
③⑦⑤④ |-④⑤-|
口②口口 |⑥⑦-⑧|
①口口① |----|
3
口②①口 |①---|
②口口① |--②-|
①口口② |----|
口①②口 |----|
4
⑧口③⑧ |①-②③|
④⑤②⑦ |-④⑤-|
口口⑥口 |⑥⑦-⑧|
①口口① |----|
5
口①②口 |①---|
①③③② |--②-|
②③③① |----|
口②①口 |③---|
6
⑧③③口 |①-②-|
⑥⑦⑦口 |③-④-|
④⑤⑤口 |⑤-⑥-|
②①①口 |⑦-⑧-|
7
口口口口 |①-②-|
口④④口 |③-④-|
口口口③
①口②①

⑦口口⑦
口口口⑤
口口⑥⑧ |⑤-⑥-|
口口口口 |⑦-⑧-|
8
⑧③③口 |①-②-|
⑥⑦⑦口 |③-④-|
④⑤⑤口 |⑤-⑥-|
②①①口 |⑦-⑧-|
9
⑦⑦⑦⑦ |①-②-|
口④④⑤ |③-④-|
口口⑥③ |⑤-⑥-|
①口②① |⑦---|
10
④口口口 |①---|
③口口口 |②---|
②口口口 |③---|
①口口① |④---|
11
口口口口 |①-②-|
口①口口 |③---|
口口②口 |----|
口口口③ |----|
12
口口口③ |----|
口口口② |①---|
口口口① |②---|
口口口口 |③---|
13
口口口口 |①-②-|
口口①口 |③---|
口②口口 |----|
③口口口 |----|
14
③口口口 |----|
②口口口 |①---|
①口口口 |②---|
口口口口 |③---|
15
⑥口口口 |①-②-|
⑥①口口 |③---|
⑤⑤②口 |--④-|
④口④③ |⑤-⑥-|
16
口口口③ |--①-|
口口口③ |②-③-|
口口②②
口①口①

口④④口
口⑤⑤口
口口口口 |--④-|
⑥口口⑥ |⑤-⑥-|
17
口口口口 |----|
口口口口 |----|
口口口口 |----|
口口口口 |----|
18
⑤⑧口⑤ |①-②-|
口⑦⑦④ |③-④-|
⑥③③口 |⑤-⑥-|
①口②① |⑦-⑧-|
19
⑦口口口 |①-②-|
⑥⑤口口 |③-④-|
⑧①②③ |⑤-⑥-|
④①②③ |⑦-⑧-|
20
口口口口 |①-②-|
③口②③ |③-④-|
口④口口
口①①口

口⑤⑤⑥
⑧口口口
⑦口口⑦ |⑤-⑥-|
口口口口 |⑦-⑧-|
21
口口口口 |①-②-|
口②①口 |③-④-|
口②①口
口③③④

口口⑤⑥
口口口口
口口口⑦ |⑤-⑥-|
口口⑧口 |⑦-⑧-|
22
③⑧④③ |①-②-|
口⑤⑤② |③-④-|
⑥⑦⑦口 |⑤-⑥-|
①口口① |⑦-⑧-|
23
⑦⑦①① |①-②-|
③口口③ |③-④-|
⑥⑥④⑤ |⑤-⑥-|
⑧⑧②② |⑦-⑧-|
24
口口②② |--①-|
口口口口 |②-③-|
口口①①
口口③③

口口口口
口④④口
⑥⑤⑤⑥ |--④-|
口口口口 |⑤-⑥-|
25
口口③口 |--①-|
口口口口 |②-③-|
口口口口
口口②①

口④口口
口口口口
口口⑥口 |④-⑤-|
口⑤口⑦ |⑥-⑦-|
26
口⑥⑧⑦ |①-②-|
⑤④口口 |③-④-|
③②口口 |⑤-⑥-|
①口口口 |⑦-⑧-|
27
口④口口 |①-②-|
②口⑤⑥ |③-④-|
口口⑥⑤ |--⑤-|
①③口口 |⑥---|
28
口口口⑥ |--①-|
⑦口口⑦ |②-③-|
口口口⑤ |④-⑤-|
③④②① |⑥-⑦-|
29
口②②口 |①---|
口①①口 |②-③-|
口③③口 |④---|
口④④口 |----|
30
⑦口⑤口 |①-②-|
口口③⑥ |③-④-|
口口①④ |⑤-⑥-|
口⑧口② |⑦-⑧-|
31
口口口① |①-②-|
④③②口 |③-④-|
口③②①
④口口口

⑥口口⑥
口口口口
口⑦⑦口 |⑤-⑥-|
口口⑤⑤ |--⑦-|
32
口口口口 |--①-|
②①口口 |②-③-|
口口口口
口口③口

口口口口
⑦口口⑦
口⑥⑤口 |④-⑤-|
口口口④ |⑥-⑦-|
33
⑪②②⑩ |①---|
⑨①①⑧ |②-③-|
⑦③③⑥ |④⑤⑥⑦|
⑤口口④ |⑧⑨⑩⑪|
34
口口①口 |①---|
口口口口 |②-③-|
③口口口
②③口口

⑤口口⑦
④⑥⑦口
口⑦⑥口 |④-⑤-|
⑦口④⑤ |⑥-⑦-|
35
口①①口 |①---|
口口口口 |②-③-|
口口口③
口口③②

⑦口口⑤
口⑦⑥④
口⑥⑦口 |④-⑤-|
⑤④口⑦ |⑥-⑦-|
36
口①①④ |①-②-|
口口口口 |③-④-|
口口口②
口③③口

口⑧⑧口
口口口口
⑦⑥⑥口 |⑤-⑥-|
⑤口口口 |⑦-⑧-|
37
口口⑤③ |①-②-|
①口③口 |③-④-|
口③④② |--⑤-|
⑥⑥⑥⑥ |⑥---|
38
②③口口 |①---|
③口口口 |②-③-|
口①①口
口口口口

⑦口④⑤
口⑦⑥口
④⑥⑦口 |④-⑤-|
⑤口口⑦ |⑥-⑦-|
39
口口③② |①---|
口口口③ |②-③-|
口口口口
口①①口

⑤④口⑦
口⑥⑦口
口⑦⑥④ |④-⑤-|
⑦口口⑤ |⑥-⑦-|
40
④③③口 |①-②-|
口口口口 |③-④-|
②口口口
口①①口

口⑧口⑧
口口口口
口⑥口⑦ |⑤-⑥-|
口口⑥⑤ |⑦-⑧-|
41
③口口口 |①-②-|
口③口① |③-④-|
②④③口
口口口口

口⑤口口
口口口口
⑦口口口 |--⑤-|
⑥⑥⑥⑥ |⑥-⑦-|
42
②③口口 |①---|
③口口口 |②-③-|
口①①口
口口口口

⑦口④⑤
口⑦⑥口
④⑥⑦口 |④-⑤-|
⑤口口⑦ |⑥-⑦-|
43
口口③② |①---|
口口口③ |②-③-|
口口口口
口①①口

⑤④口⑦
口⑥⑦口
口⑦⑥④ |④-⑤-|
⑦口口⑤ |⑥-⑦-|
44
④③③口 |①-②-|
口口口口 |③-④-|
②口口口
口①①口

口⑧口口
口口⑧⑤
口⑥口⑦ |⑤-⑥-|
口口⑥口 |⑦-⑧-|
45
④口①⑤ |①-②-|
⑥④⑤⑥ |③-④-|
②⑤④口 |--⑤-|
⑥③③⑥ |--⑥-|
46
口③口⑥ |①--②|
⑥口口⑤ |--③-|
⑤口②④ |--④-|
④①口口 |⑤-⑥-|
47
①口⑤口 |①--②|
口口②⑤ |--③-|
口④④口 |----|
⑤③口① |④-⑤-|
48
口①口口 |--①-|
①口②口 |--②-|
口②口口
口口②①

口口口口
④③口④
④口③④ |--③-|
口③口口 |--④-|
49
①①①① |--①-|
口口口口 |②---|
口口口口 |----|
②②②② |----|
50
口②①口 |①---|
②口口① |--②-|
①口口② |----|
口①②口 |----|
51
⑧口③⑧ |①-②③|
④⑤②⑦ |-④⑤-|
口口⑥口 |⑥⑦-⑧|
①口口① |----|
52
口①②口 |①---|
①③③② |--②-|
②③③① |----|
口②①口 |③---|
53
⑧③③口 |①-②-|
⑥⑦⑦口 |③-④-|
④⑤⑤口 |⑤-⑥-|
②①①口 |⑦-⑧-|
54
口口口口 |①-②-|
口④④口 |③-④-|
口口口③
①口②①

⑦口口⑦
口口口⑤
口口⑥⑧ |⑤-⑥-|
口口口口 |⑦-⑧-|
55
⑧③③口 |①-②-|
⑥⑦⑦口 |③-④-|
④⑤⑤口 |⑤-⑥-|
②①①口 |⑦-⑧-|
56
⑦⑦⑦⑦ |①-②-|
口④④⑤ |③-④-|
口口⑥③ |⑤-⑥-|
①口②① |⑦---|
57
口口口口 |①---|
口①①口 |----|
①口口① |----|
口①①口 |----|

不確定度: 0

最終更新:2014年12月11日 22:46