THIS NIGHT (jubeat EDITION)
TЁЯRA

ADVANCED

Level: 5
BPM: 160
Notes: 375

1
口口口口 |----|
①口口① |----|
口①①口 |----|
口口口口 |①---|
2
②①①② |①---|
口口口口 |----|
口口口口 |----|
口口口口 |②---|
3
口①口口 |①---|
口口③口 |②---|
口②口口 |③---|
口口④口 |④---|
4
口口口口 |①---|
口口口口 |--②-|
②口口③ |----|
①②③① |③---|
5
口口口口 |①---|
口③②口 |----|
口①①口 |②---|
口口口口 |③---|
6
③①①② |①---|
口口口口 |----|
口口口口 |②---|
口口口口 |③---|
7
口①口口 |①---|
口口④口 |②---|
口②口口 |③---|
口口③口 |④---|
8
口①①口 |①---|
②口口② |--②-|
口口口口
口口口口

口③③口
口口口口
口口口口 |----|
口口口口 |③---|
9
①③②① |①---|
口口口口 |----|
口口口口 |②---|
口口口口 |③---|
10
②口口② |①---|
口①①口 |----|
口口口口 |----|
口口口口 |②---|
11
口①②口 |①---|
口口口口 |②---|
口口④口 |③---|
口③口口 |④---|
12
③①②③ |①---|
口口口口 |--②-|
口口口口 |----|
口口口口 |③---|
13
口③②口 |①---|
口①①口 |----|
口口口口 |②---|
口口口口 |③---|
14
口③②口 |①---|
口①①口 |----|
口口口口 |②---|
口口口口 |③---|
15
口口口口 |①---|
口①④口 |②---|
口②口口 |③---|
口③口口 |④---|
16
口口口口 |①---|
口口口口 |--②-|
口口①口 |③---|
③③②② |----|
17
口口口口 |----|
口口口口 |----|
口口口口 |----|
口口口口 |----|
18
⑦口③④ |--①-|
①②口口 |②-③-|
口⑤⑥口 |④-⑤-|
口口口口 |⑥-⑦-|
19
口口口口 |--①-|
口口口口 |--②-|
①口口口 |③---|
③③②口 |----|
20
⑦口③④ |--①-|
①②口口 |②-③-|
口口⑥口 |④-⑤-|
口⑤口口 |⑥-⑦-|
21
口口口② |--①-|
口①口② |②---|
口口口口 |----|
口口口口 |----|
22
⑦口③④ |--①-|
①②口口 |②-③-|
口⑤⑥口 |④-⑤-|
口口口口 |⑥-⑦-|
23
口口口口 |--①-|
口口口口 |--②-|
①口口口 |③---|
③③②口 |----|
24
口口③口 |--①-|
①②口口 |②-③-|
口口口口
口口口口

⑦口口④
⑦口口口
口⑤⑥口 |④-⑤-|
口口口口 |⑥-⑦-|
25
口口口④ |--①-|
口口口④ |②-③-|
⑤⑤口口 |④---|
③①②口 |⑤---|
26
⑦口③④ |--①-|
①②口口 |②-③-|
口⑤⑥口 |④-⑤-|
口口口口 |⑥-⑦-|
27
口口口口 |--①-|
口口口口 |--②-|
①口口口 |③---|
③③②口 |----|
28
⑦口③④ |--①-|
①②口口 |②-③-|
口口⑥口 |④-⑤-|
口⑤口口 |⑥-⑦-|
29
口口口② |--①-|
口①口② |②---|
口口口口 |----|
口口口口 |----|
30
⑦口③④ |--①-|
①②口口 |②-③-|
口⑤⑥口 |④-⑤-|
口口口口 |⑥-⑦-|
31
口口口口 |--①-|
口口口口 |--②-|
①口口口 |③---|
③③②口 |----|
32
口口③口 |--①-|
①②口口 |②-③-|
口口口口
口口口口

口口口④
⑦口口口
口⑤⑥口 |④-⑤-|
口口口口 |⑥-⑦-|
33
口口口④ |--①-|
口口口④ |②-③-|
⑤⑤口口 |④---|
③①②口 |⑤---|
34
②口口② |①---|
口①①口 |----|
口口口口 |----|
口口口口 |②---|
35
口口口口 |①---|
口②②口 |----|
口①①口 |----|
口口口口 |②---|
36
口口口口 |①---|
②口口② |----|
③①①③ |②---|
口口口口 |--③-|
37
①口⑤⑤ |--①-|
②口口口 |②-③-|
口③口口 |④---|
口④口口 |⑤---|
38
口口口口 |①---|
②口口② |----|
口口口口 |----|
口口①① |②---|
39
②①①② |①---|
③口口③ |----|
口口口口 |②---|
口口口口 |③---|
40
口口口口 |①---|
口口口口 |----|
口口口口 |----|
口①①口 |----|
41
④口口④ |①---|
口③③口 |②---|
②口口② |③---|
口①①口 |④---|
42
口①①口 |①---|
①口口① |----|
口口口口 |----|
口口口口 |----|
43
③④④③ |①---|
①②②① |②---|
口口口口 |③---|
口口口口 |④---|
44
②口口② |①---|
口口口口 |----|
口①①口 |----|
①口口① |②---|
45
口①口口 |①---|
口口③口 |②---|
口②口口 |③---|
口口④口 |④---|
46
口口口口 |①---|
口口口口 |--②-|
②口口③ |----|
①②③① |③---|
47
口口口口 |①---|
口③②口 |----|
口①①口 |②---|
口口口口 |③---|
48
③①①② |①---|
③口口② |--②-|
口口口口 |----|
口口口口 |③---|
49
口①口口 |①---|
口口④口 |②---|
口②口口 |③---|
口口③口 |④---|
50
口①①口 |①---|
②口口② |--②-|
口口口口
口口口口

口③③口
口口口口
口口口口 |----|
口口口口 |③---|
51
①③②① |①---|
口口口口 |----|
口口口口 |②---|
口口口口 |③---|
52
②口口② |①---|
口①①口 |----|
口口口口 |----|
口口口口 |②---|
53
口①②口 |①---|
口口口口 |②---|
口口④口 |③---|
口③口口 |④---|
54
③①②③ |①---|
口口口口 |--②-|
口口口口 |----|
口口口口 |③---|
55
口③②口 |①---|
口①①口 |----|
①口口① |②---|
口口口口 |③---|
56
口③②口 |①---|
口①①口 |--②-|
口口口口 |----|
口口口口 |③---|
57
口口口口 |①---|
口①④口 |②---|
口②口口 |③---|
口③口口 |④---|
58
口口口口 |①---|
口口口口 |--②-|
口口①口 |③---|
③③②② |----|
59
口④④口 |①---|
③口口③ |②---|
①②②① |③---|
口口口口 |④---|
60
②口口② |①---|
口口口口 |----|
口①①口 |----|
口口口口 |②---|
61
口①①口 |①---|
口口③口 |②---|
口②口口 |③---|
口口④口 |④---|
62
口口口口 |①---|
口口口口 |--②-|
②口口③ |----|
①②③① |③---|
63
口口口口 |①---|
①③②① |----|
口①①口 |②---|
口口口口 |③---|
64
③①①② |①---|
③口口② |--②-|
口口口口 |----|
口口口口 |③---|
65
口①口口 |①---|
口口④口 |②---|
口②口口 |③---|
口口③口 |④---|
66
口①①口 |①---|
②口口② |--②-|
口口口口
口口口口

口③③口
口口口口
口口口口 |----|
口口口口 |③---|
67
①③②① |①---|
口口口口 |----|
①口口① |②---|
口口口口 |③---|
68
②口口② |①---|
口①①口 |----|
①口口① |----|
口口口口 |②---|
69
口①②口 |①---|
口口口口 |②---|
口口④口 |③---|
口③口口 |④---|
70
③①②③ |①---|
口①②口 |--②-|
口口口口 |----|
口口口口 |③---|
71
口③②口 |①---|
口口口口 |----|
口①①口 |②---|
①口口① |③---|
72
口③②口 |①---|
口①①口 |--②-|
口口口口 |----|
口口口口 |③---|
73
口口口口 |①---|
口①④口 |②---|
口②口口 |③---|
口③口口 |④---|
74
口口口口 |①---|
口口口口 |--②-|
口口①口 |③---|
③③②② |----|
75
口口口口 |----|
口口口口 |----|
口口口口 |----|
口口口口 |----|
76
口口口口 |①---|
口①①口 |----|
口①①口 |----|
口口口口 |----|


不确定度: 0

タグ:

+ タグ編集
  • タグ:

このサイトはreCAPTCHAによって保護されており、Googleの プライバシーポリシー利用規約 が適用されます。

最終更新:2012年11月08日 18:38