101回目の呪い
ゴールデンボンバー

BASIC

Level: 2
BPM: 178
Notes: 174

1
口口口口 |----|
口口口口 |----|
口口口口 |----|
口口口口 |----|
2
口①口口 |①---|
口口口口 |----|
口口口口 |----|
口口口口 |----|
3
口口口口 |①---|
口①口口 |----|
口口口口 |----|
口口口口 |----|
4
口口口口 |①---|
口口口口 |----|
口①口口 |----|
口口口口 |----|
5
口口口口 |①---|
口口口口 |----|
口口口口 |----|
口①口口 |----|
6
口口口口 |①---|
口口口口 |----|
口口口口 |----|
口口①口 |----|
7
口口口口 |①---|
口口口口 |----|
口口①口 |----|
口口口口 |----|
8
口口口口 |①---|
口口①口 |----|
口口口口 |----|
口口口口 |----|
9
口口①口 |①---|
口口口口 |----|
口口口口 |----|
口口口口 |----|
10
①①②口 |①---|
口口口口 |----|
口口口口 |②---|
口口口口 |----|
11
口口口口 |①---|
口①②口 |----|
口口口口 |②---|
口口口口 |----|
12
口口口口 |①---|
口口口口 |----|
①①②口 |②---|
口口口口 |----|
13
口口口口 |①---|
口口口口 |----|
口口口口 |②---|
口①②口 |----|
14
口②①① |①---|
口口口口 |----|
口口口口 |②---|
口口口口 |----|
15
口口口口 |①---|
口②①口 |----|
口口口口 |②---|
口口口口 |----|
16
口口口口 |①---|
口口口口 |----|
口②①① |②---|
口口口口 |----|
17
口口口口 |①---|
口口口口 |----|
口口口口 |②---|
口②①口 |----|
18
口口口口 |①---|
口口口口 |----|
口①①口 |----|
口口口口 |----|
19
口口口口 |①---|
口②①口 |----|
口口口口 |②---|
口口口口 |----|
20
口①①口 |①---|
口口口口 |----|
口口口口 |----|
口口口口 |----|
21
口口口口 |----|
口口口口 |----|
口口口口 |----|
口口口口 |----|
22
口口口口 |①---|
口口口口 |----|
口①①口 |----|
口口口口 |----|
23
口口口口 |①---|
口①②口 |----|
口口口口 |②---|
口口口口 |----|
24
口口口口 |①---|
口口口口 |----|
口①①口 |②---|
口②②口 |----|
25
口口口口 |①---|
②口口② |----|
①口口① |②---|
口口口口 |----|
26
口①①口 |①---|
口③②口 |②---|
口口④口 |③---|
口口口口 |④---|
27
口口口口 |①---|
口④③口 |②---|
口②口口 |③---|
口①①口 |④---|
28
①口口① |①---|
③口口② |②---|
口口口④ |③---|
口口口口 |④---|
29
口口口口 |①---|
④口口③ |②---|
②口口口 |③---|
①口口① |④---|
30
口口①口 |①---|
口口②口 |②---|
口口③口 |③---|
口口④口 |④---|
31
口④口口 |①---|
口③口口 |②---|
口②口口 |③---|
口①口口 |④---|
32
①口口① |①---|
②口口② |----|
口口口口 |②---|
口口口口 |----|
33
口口口口 |①---|
口口口口 |----|
①口口① |②---|
②口口② |----|
34
②③口口 |①---|
口①①口 |----|
口①①口 |②---|
口口口口 |③---|
35
口口①口 |①---|
口口③② |----|
口口口口 |②---|
口口口口 |③---|
36
口口口口 |①---|
口①口口 |----|
②③口口 |②---|
口口口口 |③---|
37
口口口口 |①---|
口口口口 |----|
口口①口 |②---|
口口③② |③---|
38
口口口口 |①---|
口口口口 |----|
口②②口 |②---|
口①口口 |----|
39
口①①口 |①---|
口口口口 |----|
②口口② |②---|
口口口口 |----|
40
①口口① |①---|
②口口② |----|
口口口口 |②---|
口口口口 |----|
41
口口口口 |①---|
口口口口 |----|
①口口① |②---|
②口口② |----|
42
口口③② |①---|
口①①口 |----|
口①①口 |②---|
口口口口 |③---|
43
口①口口 |①---|
②③口口 |----|
口口口口 |②---|
口口口口 |③---|
44
口口口口 |①---|
口口①口 |----|
口口③② |②---|
口口口口 |③---|
45
口口口口 |①---|
口口口口 |----|
口①口口 |②---|
②③口口 |③---|
46
口口口口 |①---|
口口口口 |----|
口②②口 |②---|
口口①口 |----|
47
口①①口 |①---|
口口口口 |----|
②口口② |②---|
口口口口 |----|
48
①口口① |①---|
②口口② |----|
口口口口 |②---|
口口口口 |----|
49
口口口口 |①---|
口口口口 |----|
①口口① |②---|
②口口② |----|
50
口口口口 |①---|
口①①口 |----|
口①①口 |----|
口口口口 |----|
51
口口口口 |①---|
口口口口 |----|
口②①口 |②---|
口口口口 |----|
52
口口口口 |①---|
口②①口 |----|
口口口口 |②---|
口口口口 |----|
53
口②①口 |①---|
口口口口 |----|
口口口口 |②---|
口口口口 |----|
54
口口口口 |①---|
口口②① |----|
口口口口 |②---|
口口口口 |----|
55
口口口口 |①---|
②①口口 |----|
口口口口 |②---|
口口口口 |----|
56
口口口口 |①---|
口口口口 |----|
①②口口 |②---|
口口口口 |----|
57
口口口口 |①---|
口口口口 |----|
口口①② |②---|
口口口口 |----|
58
口口口口 |①---|
口口口口 |----|
口口口口 |----|
口①①口 |----|
59
口口口口 |①---|
口口口口 |----|
口①①口 |----|
口口口口 |----|
60
口口口口 |①---|
口①①口 |----|
口口口口 |----|
口口口口 |----|
61
口①①口 |①---|
口口口口 |----|
口口口口 |----|
口口口口 |----|
62
口口①口 |①---|
口口口口 |----|
口口口口 |----|
口口口口 |----|
63
口①口口 |①---|
口②②口 |----|
口②②口 |----|
口口口口 |--②-|

不確定度: 0

最終更新:2014年12月11日 22:45