101回目の呪い
ゴールデンボンバー

ADVANCED

Level: 5
BPM: 178
Notes: 270

1
口口口口 |----|
口口口口 |----|
口口口口 |----|
口口口口 |----|
2
③口口② |①---|
口①①口 |----|
口口口口 |--②-|
口口口口 |--③-|
3
口②②口 |----|
口①①口 |①---|
口口口口 |--②-|
口口口口 |----|
4
②口口② |①---|
口口口口 |--②-|
③①①③ |----|
口口口口 |--③-|
5
口口口口 |----|
口口口口 |----|
口口口口 |----|
口口口口 |----|
6
口口口口 |①---|
口①①口 |----|
口口口口 |----|
口口口口 |----|
7
口口口口 |①---|
口口口口 |----|
口①①口 |----|
口口口口 |----|
8
①口口① |①---|
②口口② |--②-|
口③③口 |----|
口口口口 |③---|
9
口口口口 |①---|
口口口口 |--②-|
②口口② |----|
①口口① |----|
10
口口口口 |①---|
口①①口 |----|
口口口口
口口口口

口③②口
口口④口
口口口口 |--②-|
口口口口 |③-④-|
11
口口口④ |①---|
口①⑤口 |②-③-|
口③②口 |--④-|
口口口口 |--⑤-|
12
口口口口 |①---|
口①口口 |②-③-|
口③②口 |--④-|
⑤口口④ |--⑤-|
13
口口口口 |----|
口口口口 |----|
口口口口 |----|
口口口口 |----|
14
口口口③ |----|
口口④口 |①-②-|
口②①口 |--③-|
口口口口 |--④-|
15
口③②口 |①---|
口①口口 |②-③-|
⑤口口④ |--④-|
口口口口 |--⑤-|
16
口口口口 |----|
口口口口 |----|
口口口口 |----|
口口口口 |----|
17
③口口③ |----|
口②口口 |----|
口口①口 |①-②-|
口口口口 |--③-|
18
口口口口 |----|
口口口① |----|
口口口口 |----|
口口口口 |①---|
19
口口口口 |①---|
③②①口 |②---|
口口口口 |③---|
口④④口 |--④-|
20
口口口口 |----|
口口口口 |----|
口口口口 |----|
口口口口 |----|
21
口口③口 |----|
口②口口 |----|
口口①口 |--①-|
口口口口 |②-③-|
22
口口口口 |----|
口口口① |----|
口口口口 |----|
口口口口 |①---|
23
口口口口 |①---|
口口①口 |②-③-|
口②③口 |----|
口④⑤口 |④-⑤-|
24
①口口① |--①-|
②口③② |--②-|
口口③口 |----|
口口口口 |--③-|
25
口口口⑤ |----|
②①口④ |①---|
②①口③ |②-③-|
口口口口 |④-⑤-|
26
口口③口 |----|
口口②口 |----|
口口①口 |--①-|
口口口口 |②-③-|
27
口③口口 |----|
口②口口 |----|
口①口口 |--①-|
口口口口 |②-③-|
28
③口口口 |----|
②口口口 |----|
①口口口 |--①-|
口口口口 |②-③-|
29
口口口口 |----|
口口③口 |----|
口②口口 |--①-|
口口①口 |②-③-|
30
口口口口 |----|
口口口口 |----|
口口口口 |----|
口口口口 |----|
31
口①①口 |----|
口口②口 |①---|
口③口口 |②-③-|
口口口口 |----|
32
①口口② |①---|
口口口口 |----|
口口口口 |②---|
②口口① |----|
33
口①②口 |①---|
口口口口 |----|
口口口口 |②---|
口②①口 |----|
34
⑤口④⑤ |①---|
①③口① |--②-|
①口②① |③-④-|
口口口口 |--⑤-|
35
口④④口 |①---|
①口口① |②-③-|
口②②口 |----|
口③③口 |④---|
36
⑤④口⑤ |①---|
口口③口 |--②-|
①②口① |③-④-|
口口口口 |--⑤-|
37
口④④口 |①---|
①口口① |②-③-|
口②②口 |----|
口③③口 |④---|
38
口④口口 |①---|
口口③② |--②-|
①⑤口① |③--④|
口口口口 |--⑤-|
39
口口口口 |①---|
②口口口 |--②-|
口口①口
口口口口

口口④口
口③口口
口口⑤口 |③--④|
口口口口 |--⑤-|
40
①口口② |①---|
口口口口 |----|
口口口口 |②---|
②口口① |----|
41
口①②口 |①---|
口口口口 |----|
口口口口 |②---|
口②①口 |----|
42
⑤口④⑤ |①---|
①③口① |--②-|
①口②① |③-④-|
口口口口 |--⑤-|
43
口④④口 |①---|
①口口① |②-③-|
口②②口 |----|
口③③口 |④---|
44
⑤④口⑤ |①---|
口口③口 |--②-|
①②口① |③-④-|
口口口口 |--⑤-|
45
口④④口 |①---|
①口口① |②-③-|
口②②口 |----|
口③③口 |④---|
46
口④口口 |①---|
口口③② |--②-|
①⑤口① |③--④|
口口口口 |--⑤-|
47
口口口口 |①---|
②口口口 |--②-|
口口①口
口口口口

口口④口
口③口口
口口⑤口 |③--④|
口口口口 |--⑤-|
48
①口口② |①---|
口口口口 |----|
口口口口 |②---|
②口口① |----|
49
口①②口 |①---|
口口口口 |----|
口口口口 |②---|
口②①口 |----|
50
口口口口 |①---|
①口口① |----|
①口口① |----|
口口口口 |----|
51
口口口口 |①-②-|
口②①口 |--③-|
口口口口 |--④-|
④口口③ |----|
52
口口①口 |--①-|
口②口口 |②-③-|
⑤口③⑤ |④---|
口④口口 |⑤---|
53
口口口③ |①-②-|
口②①口 |--③-|
口⑤④口 |--④-|
口口⑥口 |⑤-⑥-|
54
口口口④ |①---|
口口口③ |②---|
口口口② |③---|
口①口口 |④---|
55
③口口口 |①---|
②①①口 |----|
口口口口 |②---|
口口口口 |③---|
56
口④③口 |①---|
口②①口 |----|
口①②口 |②---|
口口口口 |③-④-|
57
口口口口 |----|
口①①口 |----|
口口口口 |①---|
口口口口 |----|
58
口口口口 |①-②-|
口口口口 |③-④-|
口②①口 |----|
口④③口 |----|
59
口口口口 |①-②-|
口口口口 |③-④-|
②口口① |----|
④口口③ |----|
60
口口口口 |①-②-|
口口口口 |③-④-|
口②①口 |----|
口④③口 |----|
61
口口口口 |①-②-|
口口口口 |③-④-|
②口口① |----|
④口口③ |----|
62
口口口口 |①---|
口口口口 |----|
口①①口 |----|
口口口口 |----|
63
口⑤⑤口 |①---|
④③②① |②---|
口口口口 |③---|
口口口口 |④-⑤-|

不確定度: 0

最終更新:2014年12月11日 22:44