カーニバル
ケツメイシ

BASIC

Level: 3
BPM: 150
Notes: 234

1
口口口口 |----|
口口口口 |----|
口口口口 |----|
口口口口 |----|
2
口口口口 |①---|
口口口口 |----|
口口口口 |----|
口口①口 |----|
3
口口口口 |①---|
口口②口 |----|
口口①口 |②---|
口口口口 |----|
4
口口口口 |①---|
口口口口 |----|
口口口口 |----|
口①口口 |----|
5
口口口口 |①---|
口②口口 |----|
口①口口 |②---|
口口口口 |----|
6
口口口口 |①---|
口口口口 |----|
口口口口 |----|
口口①口 |----|
7
口口口口 |①---|
口口②口 |----|
口口①口 |②---|
口口口口 |----|
8
口口口口 |①---|
口①口口 |----|
口口口口 |----|
口口口口 |----|
9
口口口口 |①---|
口③③口 |----|
口②①口 |②---|
口口口口 |③---|
10
口①①口 |①---|
口口口口 |②---|
口③②口 |③---|
口口④口 |④---|
11
口口口口 |①---|
口④④口 |②---|
③口口② |③---|
口①口口 |④---|
12
口①①口 |①---|
口口口口 |②---|
口②③口 |③---|
口④口口 |④---|
13
口口口口 |①---|
口④④口 |②---|
②口口③ |③---|
口口①口 |④---|
14
口①①口 |①---|
口口口口 |②---|
口③②口 |③---|
口口④口 |④---|
15
口口口口 |①---|
口口口④ |②---|
③口口② |③---|
口①口口 |④---|
16
口口口口 |①---|
①口口④ |②---|
口③②口 |③---|
口口口口 |④---|
17
口口④口 |①---|
①③口口 |②---|
口口②口 |③---|
口口口口 |④---|
18
②①口口 |①---|
③口口口 |②---|
④口口口 |③---|
口口口口 |④---|
19
口口口口 |①---|
口口口口 |②---|
口口口口 |③---|
①②③④ |④---|
20
口口④③ |①---|
口口口② |②---|
口口口① |③---|
口口口口 |④---|
21
口①口口 |①---|
口②口口 |②---|
口③口口 |③---|
口口口口 |----|
22
口口口③ |①---|
口口口② |②---|
口口口① |③---|
口口口口 |----|
23
③口口口 |①---|
②口口口 |②---|
①口口口 |③---|
口口口口 |----|
24
口口口口 |①---|
③口口口 |②---|
口②①口 |③---|
口口口口 |----|
25
口②②口 |①---|
口口口① |----|
口口口口 |②---|
口口口口 |----|
26
口④口口 |①---|
口口③口 |②---|
口②口口 |③---|
口口①口 |④---|
27
口口①口 |①---|
口②口口 |②---|
口口③口 |③---|
口④口口 |④---|
28
口④口口 |①---|
口口③口 |②---|
口②口口 |③---|
口口①口 |④---|
29
口口①口 |①---|
口②口口 |②---|
口口③口 |③---|
口④口口 |④---|
30
口口④口 |①---|
口③口口 |②---|
口口②口 |③---|
口口①口 |④---|
31
口①口口 |①---|
口口②口 |②---|
口③口口 |③---|
口口④口 |④---|
32
口口④口 |①---|
口③口口 |②---|
口口②口 |③---|
口①口口 |④---|
33
口①口口 |①---|
口口②口 |②---|
口③口口 |③---|
口口④口 |④---|
34
口口口口 |①---|
口口口口 |----|
口口口口 |②---|
口①②口 |----|
35
口口口口 |①---|
口口口口 |②---|
口③②① |③---|
口口口口 |----|
36
口口口口 |①---|
口②①口 |----|
口口口口 |②---|
口口口口 |----|
37
①②③口 |①---|
口口口口 |②---|
口口口口 |③---|
口口口口 |----|
38
口口口口 |①---|
口①②口 |----|
口口口口 |②---|
口口口口 |----|
39
口口口口 |①---|
口口口口 |②---|
口③②① |③---|
口口口口 |----|
40
口口口口 |①---|
口①②口 |----|
口口口口 |②---|
口口口口 |----|
41
口口口口 |①---|
口口口口 |----|
口②①口 |②---|
口口口口 |----|
42
口口口口 |①---|
口①①口 |----|
口②②口 |②---|
口口口口 |----|
43
口③③口 |①---|
口①②口 |②---|
口口口口 |③---|
口口口口 |----|
44
口口口口 |①---|
口①②口 |②---|
口③③口 |③---|
口口口口 |----|
45
口③③口 |①---|
口①②口 |②---|
口口口口 |③---|
口口口口 |----|
46
口口口② |①---|
口④③① |②---|
口口口口 |③---|
口口口口 |④---|
47
②口口口 |①---|
①③④口 |②---|
口口口口 |③---|
口口口口 |④---|
48
口口口口 |①---|
口口口口 |----|
口①①口 |②---|
口③②口 |③---|
49
口口口口 |①---|
口口口口 |----|
口①①口 |②---|
口②③口 |③---|
50
口④③口 |①---|
口口②口 |②---|
口口①口 |③---|
口口口口 |④---|
51
口口口口 |①---|
口①口口 |②---|
口②③④ |③---|
口口口口 |④---|
52
口口口口 |①---|
口③②① |②---|
口④口口 |③---|
口口口口 |④---|
53
口口口口 |①---|
口口④口 |②---|
口口③口 |③---|
口①②口 |④---|
54
口口口口 |①---|
②①口口 |②---|
③④口口 |③---|
口口口口 |④---|
55
口④③口 |①---|
口口②口 |②---|
口口①口 |③---|
口口口口 |④---|
56
口口口口 |①---|
口①口口 |②---|
口②③④ |③---|
口口口口 |④---|
57
口口口口 |①---|
口③②① |②---|
口④口口 |③---|
口口口口 |④---|
58
口口口口 |①---|
口口口口 |----|
口口口口 |----|
口①①口 |----|
59
口口口口 |----|
口口口口 |----|
口口口口 |----|
口口口口 |----|
60
口口口口 |----|
口口口口 |----|
口口口口 |----|
口口口口 |----|
61
口口口口 |----|
口①①口 |----|
口口口口 |----|
口口口口 |①---|
62
口①①口 |①---|
口口口口 |②---|
口③②口 |③---|
口口④口 |④---|
63
口口口口 |①---|
口④④口 |②---|
③口口② |③---|
口①口口 |④---|
64
口①①口 |①---|
口口口口 |②---|
口②③口 |③---|
口④口口 |④---|
65
口口口口 |①---|
口④④口 |②---|
②口口③ |③---|
口口①口 |④---|
66
口①①口 |①---|
口口口口 |②---|
口③②口 |③---|
口口④口 |④---|
67
口口口口 |①---|
口口口④ |②---|
③口口② |③---|
口①口口 |④---|
68
口口口口 |①---|
①口口④ |②---|
口③②口 |③---|
口口口口 |④---|
69
口口④口 |①---|
①③口口 |②---|
口口②口 |③---|
口口口口 |④---|

不確定度: 0

最終更新:2014年12月11日 22:43