ルシャナの気持ち
Le Siana

ADVANCED

Level: 6
BPM: 172
Notes: 355

1
口口口口 |----|
口口口口 |----|
口口口口 |----|
口口口口 |----|
2
②口口口 |①-②-|
③口①口 |--③-|
④口口口 |--④-|
⑤口口口 |--⑤-|
3
口口口口 |--①-|
口口②口 |②---|
口口③口 |③---|
口①④口 |④---|
4
①③口口 |①---|
口口②口 |--②-|
口②口口 |--③-|
口口③① |----|
5
口口口口 |①---|
①②③口 |--②-|
口③②① |----|
口口口口 |③---|
6
口口③① |①---|
口②口口 |--②-|
口口②口 |--③-|
①③口口 |----|
7
口口口口 |①---|
口③②① |--②-|
①②③口 |----|
口口口口 |③---|
8
口口口口 |①---|
③口口③ |--②-|
②口口② |--③-|
口①①口 |----|
9
口口口口 |①---|
③口口③ |--②-|
②口口② |--③-|
口①①口 |----|
10
口②②口 |①---|
口口口口 |--②-|
口①①口 |----|
口口口口 |----|
11
口口口口 |----|
①口口① |----|
口口口口 |----|
口口口口 |①---|
12
⑤④③② |①-②-|
口口口口 |--③-|
①口口① |--④-|
口口口口 |--⑤-|
13
口口口口 |--①-|
①②③④ |--②-|
口口口口 |--③-|
口口口口 |--④-|
14
口口口口 |--①-|
口口口口 |--②-|
④③②① |--③-|
口口口口 |--④-|
15
口口口口 |----|
口口口口 |----|
口口口口 |----|
口口口口 |----|
16
口口口口 |①---|
口口口口 |②---|
②口口口
口①①口

口口口口
口口口口
口③⑤口 |③---|
口口④口 |④-⑤-|
17
口④②① |----|
口③口口 |①---|
口口口口 |②---|
口口口口 |③-④-|
18
口口口口 |--①-|
口口①口 |②---|
口②③④ |③---|
口口口口 |④---|
19
口口口① |①---|
口②⑥口 |②-③-|
口⑤③口 |--④-|
口④口口 |⑤-⑥-|
20
②口①② |①---|
口⑤口口 |--②-|
口口④口 |--③-|
口口③口 |④-⑤-|
21
②①口② |①---|
口口口口 |--②-|
③④口口 |----|
口口口口 |③-④-|
22
口口口口 |①-②-|
口③③口 |--③-|
④⑤①② |----|
口口口口 |④-⑤-|
23
口口口口 |①-②-|
口③③口 |--③-|
口口①② |----|
口口口口 |----|
24
口②②口 |①---|
口③③口 |②---|
口④④口 |③---|
口①①口 |④---|
25
①口口① |①---|
③口口② |②-③-|
③口口② |--④-|
口④④口 |----|
26
④口③口 |----|
⑤口②口 |①-②-|
口口①口 |③---|
口口口口 |④-⑤-|
27
口③口④ |----|
口②口⑤ |①-②-|
口①口口 |③---|
口口口口 |④-⑤-|
28
⑤④口⑤ |----|
口口③口 |①-②-|
口②口口 |③-④-|
口口①口 |--⑤-|
29
口口口口 |----|
口①②口 |①-②-|
口口口口 |--③-|
③口④③ |--④-|
30
口③④口 |①-②-|
口口②口 |③-④-|
口①口口 |----|
口口口口 |----|
31
口口口口 |----|
口口口口 |----|
口口口口 |----|
口口口口 |----|
32
口口口口 |----|
口口口⑤ |①-②-|
②④口口 |③-④-|
①③口口 |--⑤-|
33
③③口④ |①-②-|
口②①⑤ |--③-|
口口口⑥ |--④-|
口口口口 |⑤-⑥-|
34
口口口口 |①--②|
口①口口 |--③-|
口口②口 |----|
口③口口 |----|
35
口口口口 |----|
口口口口 |----|
口口口口 |----|
口口口口 |----|
36
①②③④ |----|
⑤口口口 |①-②-|
口口口口 |③-④-|
口口口口 |--⑤-|
37
④口口口 |①-②-|
⑤①②口 |--③-|
⑥口口口 |--④-|
口③③口 |⑤-⑥-|
38
口口③口 |①--②|
口②口口 |--③-|
口口①口 |----|
口口口口 |----|
39
口口口口 |----|
口口口口 |----|
口口口口 |----|
口口口口 |----|
40
口口口口 |----|
⑤口口口 |①-②-|
口口④② |③-④-|
口口③① |--⑤-|
41
③③口④ |①-②-|
口①②⑤ |--③-|
口口口⑥ |--④-|
口口口口 |⑤-⑥-|
42
④口口④ |----|
口口③口 |①---|
口②口口 |②-③-|
口①①口 |--④-|
43
口口口口 |----|
口口口口 |----|
口口口口 |----|
口口口口 |----|
44
①②③④ |----|
⑤口口口 |①-②-|
口口口口 |③-④-|
口口口口 |--⑤-|
45
口口口口 |①-②-|
口①②口 |--③-|
口口口口
口③③口

口口口口
口⑤口口
口④④口 |--④-|
口口口口 |--⑤-|
46
口②①口 |①-②-|
口口④口 |----|
口③③口 |--③-|
口口口口 |--④-|
47
口①②口 |①-②-|
口口口口 |----|
③④⑤口 |--③-|
口口口口 |④-⑤-|
48
③口口③ |①---|
口口口口 |----|
口口口① |②---|
口②②口 |③---|
49
口口口口 |----|
口口②口 |----|
口①口口 |----|
口口口口 |①-②-|
50
①①④② |①---|
口③口口 |--②-|
口口③口 |--③-|
②④口口 |--④-|
51
口口口口 |----|
口②口口 |----|
口口①口 |----|
口口口口 |①-②-|
52
②④①① |①---|
口口③口 |--②-|
口③口口 |--③-|
口口④② |--④-|
53
②口③① |----|
口口口口 |①---|
口口口口 |②---|
①③口② |③---|
54
④①口④ |①---|
口③③口 |--②-|
口②②口 |--③-|
口口①口 |--④-|
55
口口口口 |①---|
①口口① |②---|
口④③② |③---|
口④③② |④---|
56
口口口口 |①---|
口②口口 |----|
①③口口 |--②-|
①④口口 |③-④-|
57
口口口口 |----|
口口②口 |----|
口①口口 |----|
口口口口 |①-②-|
58
①①④② |①---|
口③口口 |--②-|
口口③口 |--③-|
②④口口 |--④-|
59
口口口口 |----|
口②口口 |----|
口口①口 |----|
口口口口 |①-②-|
60
②④①① |①---|
口口③口 |--②-|
口③口口 |--③-|
口口④② |--④-|
61
②口③① |----|
口口口口 |①---|
口口口口 |②---|
①③口② |③---|
62
③①口③ |①---|
口②②口 |----|
口口口口 |--②-|
口口①口 |--③-|
63
口口口口 |①---|
①口口① |----|
口口口口 |----|
口口口口 |----|
64
⑤口口⑤ |----|
口口口口 |①-②-|
口②口④ |③-④-|
①口③口 |--⑤-|
65
口口口口 |----|
口口口口 |----|
口口口口 |----|
口口口口 |----|
66
①③口口 |①---|
口口②口 |--②-|
口②口口 |--③-|
口口③① |----|
67
口口口口 |①---|
①②③口 |--②-|
口③②① |----|
口口口口 |③---|
68
口口③① |①---|
口②口口 |--②-|
口口②口 |--③-|
①③口口 |----|
69
口口口口 |①---|
口③②① |--②-|
①②③口 |----|
口口口口 |③---|
70
口口口口 |①---|
③口口③ |--②-|
②口口② |--③-|
口①①口 |----|
71
口口口口 |①---|
③口口③ |--②-|
②口口② |--③-|
口①①口 |----|
72
口②②口 |①---|
口口口口 |--②-|
口①①口 |----|
口口口口 |----|
73
口口口口 |----|
口①①口 |----|
口口口口 |----|
口口口口 |①---|
74
口口口口 |①---|
口口口口 |----|
口口口口 |----|
①①①① |----|

不確定度: 0

最終更新:2014年12月11日 22:43