カーニバル
ケツメイシ

ADVANCED

Level: 6
BPM: 150
Notes: 432

1
口口口口 |----|
口口口口 |----|
口口口口 |----|
口口口口 |----|
2
口口口口 |----|
口③②口 |①---|
④口口口 |②-③-|
口口口① |--④-|
3
口⑤①口 |--①-|
②口口口 |②-③-|
口④③口 |④---|
口口口口 |⑤---|
4
口口③口 |----|
口口口口 |①---|
口口②口 |②-③-|
①口口④ |--④-|
5
口⑤⑤口 |--①-|
口③④口 |②-③-|
口②口口 |④---|
口①口口 |⑤---|
6
口口口口 |----|
口口④口 |①-②-|
口③②口 |③-④-|
口⑤①口 |--⑤-|
7
口口口口 |--①-|
口⑤⑤口 |②-③-|
④③②① |④---|
口口口口 |⑤---|
8
①口口① |①---|
口口口口 |----|
口口口口 |----|
口口口口 |----|
9
口④④口 |①--②|
口口口口 |--③-|
口⑥⑤口 |④---|
①②③口 |⑤-⑥-|
10
①口口① |①---|
③口④口 |--②-|
口口口口 |③-④-|
口⑤②⑥ |⑤-⑥-|
11
口④③口 |①--②|
口①口口 |--③-|
口⑤⑥口 |④---|
②口口口 |⑤-⑥-|
12
①口口① |①---|
口④口③ |--②-|
口口口口 |③-④-|
⑥②⑤口 |⑤-⑥-|
13
口③④口 |①--②|
口口①口 |--③-|
口⑤⑥口 |④---|
口口口② |⑤-⑥-|
14
①口口① |①---|
③口④口 |--②-|
口⑤口口 |③-④-|
口口②⑥ |⑤-⑥-|
15
口口②口 |①--②|
口③口口 |--③-|
口口口口
口①口口

口口口口
口口⑥口
口口④口 |④-⑤-|
⑤⑦口口 |⑥-⑦-|
16
口①口口 |①---|
口⑤④口 |②---|
口③口口 |③---|
口口②口 |④-⑤-|
17
口①口口 |①---|
口口口口 |②---|
②②口口
口口口口

④④口口
口口③③
口口口口 |③---|
口口口口 |④---|
18
口口⑦口 |--①-|
⑥口⑤口 |②-③-|
④口③口 |④-⑤-|
②口①口 |⑥-⑦-|
19
①③口② |①-②-|
口⑤口④ |③-④-|
口口⑥口 |⑤-⑥-|
口⑦口⑦ |--⑦-|
20
⑦口口口 |--①-|
⑤口⑥口 |②-③-|
③口④口 |④-⑤-|
①口②口 |⑥-⑦-|
21
口②①③ |①-②-|
口④口⑤ |③-④-|
口口口口 |⑤-⑥-|
口⑥口⑥ |----|
22
口口口⑤ |①--②|
口口⑤④ |--③-|
口②④③ |④--⑤|
口口①口 |----|
23
⑤口口口 |①--②|
④⑤口口 |--③-|
③④②口 |④--⑤|
口①口口 |----|
24
口口口口 |①---|
②口口① |②---|
②③③① |③---|
口口口口 |----|
25
②②②② |①---|
口①①口 |----|
口口口口 |②---|
口口口口 |----|
26
口④口口 |①-②-|
③⑤口口 |③-④-|
②⑥⑧口 |⑤-⑥-|
口①⑦口 |⑦-⑧-|
27
口⑦⑦② |①-②-|
口⑥①③ |③-④-|
口⑤口④ |⑤-⑥-|
口口口口 |⑦---|
28
⑦⑧口口 |①-②-|
⑥口①口 |③-④-|
口⑤②口 |⑤-⑥-|
口④③口 |⑦-⑧-|
29
口口⑦口 |--①-|
口口①⑥ |②-③-|
口口②⑤ |④-⑤-|
口口③④ |⑥-⑦-|
30
②口口② |①---|
⑥口口口 |②---|
⑤①①口 |③-④-|
口④③口 |⑤-⑥-|
31
口①口口 |①-②-|
口②⑥口 |③-④-|
口口③⑤ |⑤-⑥-|
口⑦④口 |--⑦-|
32
口口④口 |①-②-|
口③⑥⑤ |③-④-|
①②⑦口 |⑤-⑥-|
口口⑧口 |⑦-⑧-|
33
口口口口 |①-②-|
⑤⑥⑦口 |③-④-|
④②口口 |⑤-⑥-|
③①口口 |⑦---|
34
口口口④ |--①-|
口⑤⑥③ |②-③-|
口口口② |④--⑤|
口口口① |--⑥-|
35
口④②④ |①--②|
口③口③ |--③-|
口口①口 |④---|
口⑥⑤口 |⑤-⑥-|
36
口③口口 |①--②|
口口①口 |--③-|
②口口口
口口口口

口口口口
口口⑥口
口④口⑤ |④--⑤|
口口口口 |--⑥-|
37
口④口口 |①--②|
口③口口 |--③-|
口口①口 |④---|
口②口口 |----|
38
口⑥口④ |--①-|
口③⑤口 |②-③-|
口②口口 |④--⑤|
口①口口 |--⑥-|
39
⑥口①⑥ |①--②|
口②⑤口 |--③-|
口⑤③口 |④---|
口④口口 |⑤-⑥-|
40
口口口口 |--①-|
①口口① |----|
口③④口 |②--③|
口口②口 |--④-|
41
口③④② |①--②|
口①口口 |--③-|
口口口口 |④---|
口口口口 |----|
42
①口口② |①---|
口①②口 |----|
口口口口 |②---|
口口口口 |----|
43
口口口口 |①---|
口③③口 |②---|
②③③① |③---|
口②①口 |----|
44
口口口口 |①---|
口③③口 |②---|
②③③① |③---|
口②①口 |----|
45
②③③② |①---|
口③③口 |②---|
①口口① |③---|
口口口口 |----|
46
口口口② |①--②|
口口③口 |--③-|
口⑤④① |④-⑤-|
口口⑥⑦ |⑥-⑦-|
47
②口口口 |①--②|
口③口口 |--③-|
①④⑤口 |④-⑤-|
⑦⑥口口 |⑥-⑦-|
48
口④口⑦ |--①-|
③口⑤口 |②-③-|
口②口⑥ |④-⑤-|
口口①口 |⑥-⑦-|
49
⑦口④口 |--①-|
口⑤口③ |②-③-|
⑥口②口 |④-⑤-|
口①口口 |⑥-⑦-|
50
口①口口 |①-②-|
②⑧④口 |③-④-|
口③⑦⑤ |⑤-⑥-|
口口⑥口 |⑦-⑧-|
51
口口口口 |①-②-|
口⑧④口 |③-④-|
①③⑦⑤ |⑤-⑥-|
口②⑥口 |⑦-⑧-|
52
口②②口 |①---|
①口口① |----|
口口口口 |②---|
口口口口 |----|
53
口口口口 |①---|
①口口① |----|
口口口口
口口口口

口口口口
口口口③
②②②② |②---|
口口口口 |--③-|
54
口口①口 |①-②-|
③②⑥口 |③-④-|
④⑤口⑦ |⑤-⑥-|
口口口口 |⑦---|
55
口口④口 |①-②-|
口口口③ |③-④-|
口口②口
口口①口

口⑤口口
⑥口口口
口⑦口口 |⑤-⑥-|
口口⑧口 |⑦-⑧-|
56
口口③口 |①-②-|
⑥⑤④② |③-④-|
⑦口口① |⑤-⑥-|
口口口口 |⑦---|
57
⑥⑦口口 |①-②-|
⑤口口口 |③-④-|
口④③口 |⑤-⑥-|
口①②口 |⑦---|
58
口口口口 |①---|
口①①口 |----|
口口口口 |----|
口口口口 |----|
59
口②②口 |①---|
口口口口 |--②-|
口①①口 |----|
口口口口 |----|
60
口口口口 |①---|
口口口口 |----|
口口口口 |----|
口①①口 |----|
61
口口口口 |①---|
②口口② |--②-|
口①①口
口口口口

口口口口
口口口口
口④③口 |----|
口口口口 |③-④-|
62
①口口① |①---|
③口④口 |--②-|
口口口口 |③-④-|
口⑤②⑥ |⑤-⑥-|
63
口④③口 |①--②|
口①口口 |--③-|
口⑤⑥口 |④---|
②口口口 |⑤-⑥-|
64
①口口① |①---|
口④口③ |--②-|
口口口口 |③-④-|
⑥②⑤口 |⑤-⑥-|
65
口③④口 |①--②|
口口①口 |--③-|
口⑤⑥口 |④---|
口口口② |⑤-⑥-|
66
①口口① |①---|
③口④口 |--②-|
口⑤口口 |③-④-|
口口②⑥ |⑤-⑥-|
67
口口②口 |①--②|
口③口口 |--③-|
口口口口
口①口口

口口口口
口口⑥口
口口④口 |④-⑤-|
⑤⑦口口 |⑥-⑦-|
68
口①口口 |①---|
口⑤④口 |②---|
口③口口 |③---|
口口②口 |④-⑤-|
69
口①口口 |①---|
口口口口 |②---|
②②口口
口口口口

④④口口
口口③③
口口口口 |③---|
口口口口 |④---|

不確定度: 0

最終更新:2014年12月11日 22:42