HAPPY☆きたかた
KIRA☆GIRL

BASIC

Level: 2
BPM: 172
Notes: 167

1
口口口口 |----|
口口口口 |----|
口口口口 |----|
口口口口 |----|
2
口口口口 |----|
口口口口 |----|
口①②口 |①---|
口口口口 |②---|
3
口口口口 |①---|
口①①口 |----|
口口口口 |----|
口口口口 |----|
4
口口口口 |①---|
口口口口 |----|
口①①口 |----|
口口口口 |----|
5
口口口口 |①---|
①口口① |----|
口口口口 |----|
口口口口 |----|
6
口口口口 |①---|
口口口口 |----|
①口口① |----|
口口口口 |----|
7
口①①口 |①---|
口②②口 |----|
口口口口 |②---|
口口口口 |----|
8
口口口口 |①---|
口口口口 |----|
口①①口 |②---|
口②②口 |----|
9
口口口口 |①---|
口口口口 |----|
口口口口 |----|
①口口① |----|
10
口口口口 |----|
②口口口 |----|
①口口口 |①---|
口口口口 |②---|
11
①口口口 |①---|
口③口口 |----|
口②口口 |②---|
口口口口 |③---|
12
口①口口 |①---|
口口③口 |----|
口口②口 |②---|
口口口口 |③---|
13
口口①口 |①---|
口口口口 |----|
口口口② |②---|
口口口口 |----|
14
口口口口 |①---|
口口口口 |----|
口②①口 |②---|
口口口口 |----|
15
口口口口 |①---|
口口口口 |----|
①口口口 |②---|
口②口口 |----|
16
口口口口 |①---|
口口口口 |----|
口口①口 |②---|
口口口② |----|
17
口口口口 |①---|
口口口口 |----|
口①②口 |②---|
口口口口 |----|
18
口口口口 |①---|
口①②口 |----|
口口口口 |②---|
口口口口 |----|
19
口口口口 |①---|
口口口口 |----|
①口口② |②---|
口口口口 |----|
20
口口口口 |①---|
①口口② |----|
口口口口 |②---|
口口口口 |----|
21
口口口口 |①---|
口口口口 |----|
口口口口 |②---|
口①口② |----|
22
口口口口 |①---|
口口口口 |----|
口①口② |②---|
口口口口 |----|
23
口口口口 |①---|
①口②口 |----|
口口口口 |②---|
口口口口 |----|
24
①口②口 |①---|
口口口口 |----|
口口口口 |②---|
口口口口 |----|
25
②口口口 |①---|
口①①口 |----|
口①①口 |②---|
口口口口 |----|
26
口①②口 |①---|
口口口口 |----|
口口口口 |②---|
口口口口 |----|
27
口口口口 |①---|
口①口口 |----|
口口②口 |②---|
口口口口 |----|
28
口口口口 |①---|
口口口口 |----|
口口口口 |----|
口①①口 |----|
29
口口口② |①---|
口①①口 |----|
口①①口 |②---|
口口口口 |----|
30
口②①口 |①---|
口口口口 |----|
口口口口 |②---|
口口口口 |----|
31
口口口口 |①---|
口口①口 |----|
口②口口 |②---|
口口口口 |----|
32
口口口口 |①---|
口口口口 |----|
口口口口 |----|
口①①口 |----|
33
②口口口 |①---|
口①①口 |----|
口①①口 |②---|
口口口口 |----|
34
口①②口 |①---|
口口口口 |----|
口口口口 |②---|
口口口口 |----|
35
口口口口 |①---|
口①口口 |----|
口口②口 |②---|
口口口口 |----|
36
口口口口 |①---|
口口口口 |----|
口口口口 |②---|
口①②口 |----|
37
口口口口 |①---|
口口口口 |----|
①口口① |----|
口口口口 |----|
38
口口口口 |①---|
①口口① |----|
口口口口 |----|
口口口口 |----|
39
①口口① |①---|
口口口口 |----|
口口口口 |----|
口口口口 |----|
40
口①①口 |①---|
口口口口 |----|
口口口口 |----|
口口口口 |----|
41
口口口口 |①---|
③口口口 |----|
口口②口 |②---|
口口①口 |--③-|
42
口口口口 |--①-|
口①②口 |--②-|
口口口口 |----|
口口口口 |----|
43
口口口口 |①---|
口口口③ |----|
口②口口 |②---|
口①口口 |--③-|
44
口口口口 |--①-|
口②①口 |--②-|
口口口口 |----|
口口口口 |----|
45
口口口口 |①---|
口口口口 |----|
口①①口 |----|
口口口口 |----|
46
口口口口 |----|
①口口① |----|
口口口口 |①---|
口口口口 |----|
47
口①①口 |①---|
口①①口 |----|
口口口口 |----|
口口口口 |----|
48
②③口口 |①---|
口口口口 |----|
口①①口 |②---|
口口口口 |③---|
49
口口①口 |①---|
口②口口 |②---|
口口③口 |③---|
口④口口 |④---|
50
口口③② |①---|
口口口口 |----|
口口口口 |②---|
口口①口 |③---|
51
口①口口 |①---|
口口②口 |②---|
口③口口 |③---|
口口④口 |④---|
52
口口口口 |①---|
口口③② |----|
口口口口 |②---|
口①口口 |③---|
53
①①口口 |①---|
②③口口 |----|
口口口口 |②---|
口口口口 |③---|
54
口口①① |①---|
口②②口 |----|
口口口口 |②---|
口口口口 |----|
55
口口口口 |①---|
口口口口 |----|
②①①② |②---|
口口口口 |----|
56
②③口口 |①---|
①口口① |----|
口口口口 |②---|
口口口口 |③---|
57
口口①口 |①---|
口②口口 |②---|
口口③口 |③---|
口④口口 |④---|
58
口口③② |①---|
口口口口 |----|
口口口口 |②---|
口口①口 |③---|
59
口①口口 |①---|
口口口口 |----|
口②②口 |②---|
口口口口 |----|
60
口口口口 |①---|
①口口① |----|
口口口口 |----|
口口口口 |----|
61
口口口口 |①---|
①②④③ |②---|
口口口口 |③---|
口口口口 |④---|
62
口口口口 |①---|
口口口口 |②---|
①②④③ |③---|
口口口口 |④---|
63
口口口口 |①---|
口口口口 |----|
口口口口 |----|
口①①口 |----|

不確定度: 0

最終更新:2014年12月11日 22:37